Люблю назавжди / Endless Love (2014) Ukr/Eng | Sub Ukr/Eng

Нові коментарі

Нова тема   Відповісти
Останній раз роздавалося yubi (2020-07-01)
Автор Повідомлення
21jumpstreet 
VIP


З нами з: 03.07.12
Востаннє: 02.07.20
Повідомлень: 1091

2020-04-10 15:39  
Люблю назавжди / Endless Love (2014) Ukr/Eng | Sub Ukr/Eng

Люблю назавжди / Endless Love (2014) Ukr/Eng | Sub Ukr/Eng


Жанр: драма, романтичний
Країна: США



Кінокомпанія: Bluegrass Films, Fake Empire, Universal Pictures
Режисер: Шана Фест / Shana Feste
Актори: Алекс Петтіфер / Alex Pettyfer, Ґабріела Вайлд / Gabriella Wilde, Брюс Ґрінвуд / Bruce Greenwood, Емма Ріґбі / Emma Rigby, Роберт Патрік / Robert Patrick, Різ Вейкфілд / Rhys Wakefield, Джелі Річардсон / Joely Richardson та інші

Сюжет:
Перше кохання немає напівтонів, воно не зважає на умовності, матеріальні цінності та перешкоди. Молоді та зухвалі герої цієї стрічки всупереч забороні наважилися покохати одне одного. Чи матиме їхня історія happy end?


Тривалість: 01:44:38
Якість:
Відео:
кодек:
розмір кадру: 720x304
бітрейт: 1588 кб/с

Аудіо # 1:
мова: українська
переклад: професійний дубльований | LeDoyen Studio на замовлення B&H Film Distribution Company
кодек: 2.0 (стерео)
бітрейт: 192 кб/с

Аудіо # 2: (окремо)
мова: англійська
переклад: оригінал
кодек: 5.1
бітрейт: 448 кб/с

Запис з телеканалу:


Субтитри #1:
мова: українська
тип: програмні (м'які)
формат: *.srt

Субтитри #2:
мова: англійська (Full)
тип: програмні (м'які)
формат: *.srt
Скріншоти




Info
Код:
C:\Endless love (2014) [Hurtom]\Endless Love (2014) [Hurtom].avi
   General
      Complete name : C:\Endless love (2014) [Hurtom]\Endless Love (2014) [Hurtom].avi
      Format : AVI
      Format/Info : Audio Video Interleave
      File size : 1.31 GiB
      Duration : 1 h 44 min
      Overall bit rate : 1 789 kb/s
      Writing application : VirtualDubMod 1.5.10.2 (build 2540/release)
      Writing library : VirtualDubMod build 2540/release
   Video #0
      ID : 0
      Format : MPEG-4 Visual
      Format profile : Advanced [email protected]
      Format settings, BVOP : 1
      Format settings, QPel : No
      Format settings, GMC : No warppoints
      Format settings, Matrix : Custom
      Codec ID :
      Codec ID/Hint :
      Duration : 1 h 44 min
      Bit rate : 1 588 kb/s
      Width : 720 pixels
      Height : 304 pixels
      Display aspect ratio : 2.35:1
      Frame rate : 23.976 (23976/1000) FPS
      Color space : YUV
      Chroma subsampling : 4:2:0
      Bit depth : 8 bits
      Scan type : Progressive
      Compression mode : Lossy
      Bits/(Pixel*Frame) : 0.303
      Stream size : 1.16 GiB (89%)
      Writing library : 1.2.1 (UTC 2008-12-04)
   Audio #1
      ID : 1
      Format : AC-3
      Format/Info : Audio Coding 3
      Mode extension : CM (complete main)
      Format settings, Endianness : Big
      Codec ID : 2000
      Duration : 1 h 44 min
      Bit rate mode : Constant
      Bit rate : 192 kb/s
      Channel(s) : 2 channels
      Channel positions : Front: L R
      Sampling rate : 48.0 kHz
      Frame rate : 31.250 FPS (1536 spf)
      Compression mode : Lossy
      Stream size : 144 MiB (11%)
      Alignment : Split accross interleaves
      Interleave, duration : 42  ms (1.00 video frame)
      Interleave, preload duration : 500  ms

Запис звуку з ТБ: Bohdan237 та xslim
Зведення: Bohdan237
Українські субтитри: Sando7 та 11FrYkT


Джерело:
Особиста оцінка: ще не дивився


 Трекер:    Зареєстрований   

Завантажити / скачати фільм українською



відео для новачків



 Зареєстрований:   2020-04-10 20:10
 Розмір:   1.64 GB 
 Оцінка фільму:   9.1/10 (Голосів: 7)
   
Інші релізи
bot 
робот


З нами з: 30.09.07
Востаннє: 26.05.05
Повідомлень: 24917

2020-04-10 15:39  
Тему перенесено з Фільми до форуму Анонси релізів


21jumpstreet

akon111 
Відео Гуртом - запис з ТБ
Відео Гуртом - запис з ТБ


З нами з: 28.08.09
Востаннє: 03.07.20
Повідомлень: 1332

2020-04-10 17:48  
втрачений дубляж...
bot 
робот


З нами з: 30.09.07
Востаннє: 26.05.05
Повідомлень: 24917

2020-04-10 20:10  
Тему перенесено з Анонси релізів до форуму Фільми


21jumpstreet

bot 
робот


З нами з: 30.09.07
Востаннє: 26.05.05
Повідомлень: 24917

2020-04-10 20:13  
Тему перенесено з Фільми до форуму Українське озвучення


21jumpstreet

bot 
робот


З нами з: 30.09.07
Востаннє: 26.05.05
Повідомлень: 24917

2020-04-10 20:13  
Тему перенесено з Українське озвучення до форуму Фільми


21jumpstreet

Ваш часовий пояс: GMT + 2 Години

Нова тема   Відповісти