Швидкісний спуск / Downhill (2020) 1080p Eng | sub Ukr/Eng

Нові коментарі

Нова тема   Відповісти
Автор Повідомлення
Anonymous 







2020-04-10 13:55  
Швидкісний спуск / Downhill (2020) 1080p Eng | sub Ukr/Eng

Швидкісний спуск / Downhill (2020) 1080p Eng | sub Ukr/Eng
Альтернативні постери:




Жанр: драма, комедія
Країна: США



Кінокомпанія: Filmhaus Films, Likely Story, Searchlight Pictures
Режисер: Нат Факсон / Nat Faxon, Джим Реш / Jim Rash
Актори: Джулія Луіс-Дрейфус / Julia Louis-Dreyfus, Вілл Ферелл / Will Ferrell, Міранда Отто / Miranda Otto, Зої Чао / Zoe ChaoRosie, Зак Вудс / Zach Woods, Джуліан Грей / Julian Grey, Крістофер Гівью / Kristofer Hivju, Аммон Джейкоб Форд / Ammon Jacob Ford, Джуліо Марія Берруті / Giulio Maria Berruti, Надів Молчо / Nadiv Molcho та інші.

Сюжет:
Переживши сходження лавини під час відпочинку в Альпах, сімейна пара вимушена переглянути свої стосунки, ставлення до життя і один до одного.
Офіційний трейлер:


Рейтинг MPAA: R - особам до 17 років обов'язкова присутність батьків або дорослого опікуна
Вікова категорія: 16+

Тривалість: 01:26:11
Якість: 1080p [Amazon]
Відео:
кодек:
розмір кадру: 1920 х 800
бітрейт: 8266 кб/с

Аудіо:
мова: англійська
переклад: оригінал
кодек: 5.1
бітрейт: 448 кб/с

Субтитри # 1:
мова: українська
тип: програмні (м'які)
формат: *.srt
перекладач: Руслан Поліщук

Субтитри # 2:
мова: англійська (SDH)
тип: програмні (м'які)
формат: *.srt

Збережено оригінальні розділи
Info
Код:

Complete name               : Downhill (2020) [Eng, sub.Ukr,Eng] 1080p AMZN [Hurtom].
Format                      :
Format version              : Version 4
File size                   : 5.25 GiB
Duration                    : 1 h 26 min
Overall bit rate            : 8 717 kb/s
Movie name                  : Швидкісний спуск / Downhill (2020) [Eng, sub.Ukr,Eng] 1080p [Hurtom]
Encoded date                : UTC 2020-04-10 11:11:27
Writing application         : v45.0.0 ('Heaven in Pennies') 64-bit
Writing library             : libebml v1.3.10 + v1.5.2
Cover                       : Yes
Attachments                 : cover.jpg

Video
ID                          : 1
Format                      : AVC
Format/Info                 : Advanced Video Codec
Format profile              : [email protected]
Format settings             : CABAC / 4 Ref Frames
Format settings, CABAC      : Yes
Format settings, Reference  : 4 frames
Codec ID                    : V_MPEG4/ISO/AVC
Duration                    : 1 h 26 min
Bit rate mode               : Constant
Bit rate                    : 8 266 kb/s
Nominal bit rate            : 10 000 kb/s
Width                       : 1 920 pixels
Height                      : 800 pixels
Display aspect ratio        : 2.40:1
Frame rate mode             : Constant
Frame rate                  : 23.976 (24000/1001) FPS
Color space                 : YUV
Chroma subsampling          : 4:2:0
Bit depth                   : 8 bits
Scan type                   : Progressive
Bits/(Pixel*Frame)          : 0.224
Stream size                 : 4.98 GiB (95%)
Title                       : Швидкісний спуск / Downhill (2020) 1080p [Amazon, TOMMY]
Language                    : English
Default                     : Yes
Forced                      : No
Color range                 : Limited
Color primaries             : BT.709
Transfer characteristics    : BT.709
Matrix coefficients         : BT.709

Audio
ID                          : 2
Format                      : AC-3
Format/Info                 : Audio Coding 3
Commercial name             : Dolby Digital
Codec ID                    : A_AC3
Duration                    : 1 h 26 min
Bit rate mode               : Constant
Bit rate                    : 448 kb/s
Channel(s)                  : 6 channels
Channel layout              : L R C LFE Ls Rs
Sampling rate               : 48.0 kHz
Frame rate                  : 31.250 FPS (1536 SPF)
Compression mode            : Lossy
Stream size                 : 276 MiB (5%)
Language                    : English
Service kind                : Complete Main
Default                     : Yes
Forced                      : No

Text #1
ID                          : 3
Format                      : UTF-8
Codec ID                    : S_TEXT/UTF8
Codec ID/Info               : UTF-8 Plain Text
Duration                    : 1 h 24 min
Bit rate                    : 91 b/s
Count of elements           : 1432
Stream size                 : 57.1 KiB (0%)
Title                       : Ukr Full [iTunes]
Language                    : Ukrainian
Default                     : Yes
Forced                      : Yes

Text #2
ID                          : 4
Format                      : UTF-8
Codec ID                    : S_TEXT/UTF8
Codec ID/Info               : UTF-8 Plain Text
Duration                    : 1 h 19 min
Bit rate                    : 71 b/s
Count of elements           : 1623
Stream size                 : 41.7 KiB (0%)
Title                       : Eng [SDH]
Language                    : English
Default                     : No
Forced                      : No

Menu
00:00:00.000                : en:Studio Logos
00:00:39.000                : en:A difficult family photo
00:02:12.000                : en:Title Sequence
00:02:17.000                : en:Checking in to the hotel
00:07:48.000                : en:Hitting the slopes
00:10:11.000                : en:A close call
00:15:08.000                : en:A dinner date
00:21:22.000                : en:Lodging a complaint
00:25:29.000                : en:Growing further apart
00:26:28.000                : en:A rough morning
00:30:48.000                : en:Cutting losses
00:32:06.000                : en:Unexpected guests
00:43:14.000                : en:Different types of adventure
00:52:53.000                : en:Finding out who you are
00:57:43.000                : en:Growing apart
01:00:05.000                : en:The guys hit the mountain
01:04:31.000                : en:Black and white choices
01:06:39.000                : en:Drunk words are sober thoughts
01:09:56.000                : en:Family dinner
01:12:25.000                : en:Tackling the beast
01:18:53.000                : en:Life is all we have
01:20:03.000                : en:End Credits



Джерело: &


 Трекер:    Зареєстрований   

Завантажити / скачати фільм українською



відео для новачків



 Зареєстрований:   2020-04-10 13:55
 Розмір:   5.25 GB 
 Оцінка фільму:   8.9/10 (Голосів: 8)
 ЗАЛИШАЙТЕСЬ ЯКОМОГА ДОВШЕ НА РОЗДАЧІ! ЗАВАНТАЖИВ САМ - ДАЙ ЗАВАНТАЖИТИ ІНШИМ!
   
leicheman 
Відео Гуртом - фільмокрай
Відео Гуртом - фільмокрай


З нами з: 03.07.14
Востаннє: 24.11.20
Повідомлень: 5681

2020-04-10 15:15  
Щось походу у амазону якісь проблеми з відеорядами вже 3-4 фільм з субтитрами на толоці уходять в жовтий-помаранчевий колір.
Anonymous 







2020-04-12 11:22  
leicheman написано:
Щось походу у амазону якісь проблеми з відеорядами вже 3-4 фільм з субтитрами на толоці уходять в жовтий-помаранчевий колір

Виявилось, що це проблема не амазону, а оновленого MPC-HC з комплекту K-Lite Codec Pack - в інших програвачах кольори "нормальні". Згодом заміню скріншоти в останніх релізах (файлів вже немає під рукою).

Anonymous 







2020-04-16 01:28  
leicheman написано:
уходять в жовтий-помаранчевий колір.

Остаточний діагноз виявився банальним - в налаштуваннях інтелівської графіки чомусь/випадково було виставлено "Enchance video colors", скинув налаштування за замовчанням - все повернулось до норми.
На з'ясування причини пішла не одна година. Скидались налаштування кодеків, видалялись, ставились інші версії, програвачі - все марно (крім VLC - він якимось дивом видавав нормальну картинку, обходячи налаштування відеодрайвера, але він мені не подобається).

Спотворені скріншоти в останніх релізах поступово заміню.

Vovka_BC 
Новенький


З нами з: 23.06.17
Востаннє: 24.11.20
Повідомлень: 8

2020-11-02 20:17  
Лідера здичавілих все тягне в сніги.
Ваш часовий пояс: GMT + 2 Години

Нова тема   Відповісти