Місяць біля озера / A Month by the Lake (1995) 1080p Ukr/Eng | Sub Eng

Нові коментарі

Нова тема   Відповісти
Останній раз роздавалося Nic_kr (2020-09-20)
Автор Повідомлення
Anonymous 







2020-04-10 14:21  
Місяць біля озера / A Month by the Lake (1995) 1080p Ukr/Eng | Sub Eng

Місяць біля озера / A Month by the Lake (1995) 1080p Ukr/Eng | Sub Eng


Жанр: драма, романтичний, комедія
Країна: США, Велика Британія



Кінокомпанія: Anuline, Miramax
Режисер: Джон Ірвін
Актори: Ванесса Редгрейв, Едвард Фокс, Ума Турман

Сюжет:
1937-й рік. Світ на межі Другої світової війни, в повітрі розлито свинцеве тривожне очікування, але нудьгуюча знать небезпеки не помічає. В Італії, на віллі біля озера Комо, зібралося англійське вище суспільство і кілька американських гостей. Міс Бентлі, дама бальзаківського віку, вперше після смерті батька відправляється на цей курорт, де зустрічає відставного полковника, багатого англійського джентльмена приємної зовнішності.


Тривалість: 01:31:39
Якість: 1080p
Відео:
кодек:
розмір кадру: 1920х1080
бітрейт: 13,8 Мб/с

Аудіо # 1:
мова: українська
переклад: багатоголосий закадровий
кодек: 2.0
бітрейт: 192 кб/с

Аудіо # 2:
мова: англійська
переклад: оригінал
кодек: E-AC-3 2.0
бітрейт: 224 кб/с

Субтитри:
мова: англійська
тип: програмні (м'які)
формат: *.srt
Info
General
Unique ID : 243699145946328926828305741528607073072 (0xB756BF8DF7060D8AB8F678CD6BE5A330)
Complete name : E:\Toloka\2020\A Month by the Lake (1995) 1080p.
Format :
Format version : Version 4
File size : 9.29 GiB
Duration : 1 h 31 min
Overall bit rate mode : Variable
Overall bit rate : 14.5 Mb/s
Encoded date : UTC 2020-04-10 11:09:39
Writing application : v6.1.0 ('Old Devil') built on Mar 4 2013 09:10:42
Writing library : libebml v1.3.0 + v1.4.0

Video
ID : 1
Format : AVC
Format/Info : Advanced Video Codec
Format profile : [email protected]
Format settings : CABAC / 4 Ref Frames
Format settings, CABAC : Yes
Format settings, RefFrames : 4 frames
Codec ID : V_MPEG4/ISO/AVC
Duration : 1 h 31 min
Bit rate mode : Variable
Bit rate : 13.8 Mb/s
Maximum bit rate : 15.0 Mb/s
Width : 1 920 pixels
Height : 1 080 pixels
Display aspect ratio : 16:9
Frame rate mode : Constant
Frame rate : 23.976 (24000/1001) FPS
Color space : YUV
Chroma subsampling : 4:2:0
Bit depth : 8 bits
Scan type : Progressive
Bits/(Pixel*Frame) : 0.278
Stream size : 8.84 GiB (95%)
Writing library : core 148 r2623 d5b2374
Encoding settings : cabac=1 / ref=4 / deblock=1:-1:-1 / analyse=0x3:0x133 / me=umh / subme=9 / psy=1 / psy_rd=1.00:0.15 / mixed_ref=1 / me_range=24 / chroma_me=1 / trellis=2 / 8x8dct=1 / cqm=0 / deadzone=21,11 / fast_pskip=1 / chroma_qp_offset=-3 / threads=34 / lookahead_threads=5 / sliced_threads=0 / nr=150 / decimate=1 / interlaced=0 / bluray_compat=0 / constrained_intra=0 / bframes=8 / b_pyramid=2 / b_adapt=2 / b_bias=0 / direct=3 / weightb=1 / open_gop=0 / weightp=2 / keyint=120 / keyint_min=61 / scenecut=0 / intra_refresh=0 / rc_lookahead=120 / rc=crf / mbtree=1 / crf=18.0 / qcomp=0.60 / qpmin=0 / qpmax=69 / qpstep=4 / vbv_maxrate=15000 / vbv_bufsize=31250 / crf_max=0.0 / nal_hrd=vbr / filler=0 / ip_ratio=1.40 / aq=3:1.00
Default : Yes
Forced : No
Color range : Limited
Color primaries : BT.709
Transfer characteristics : BT.709
Matrix coefficients : BT.709
Statistics Tags Issue : v44.0.0 ('Domino') 64-bit 2020-04-09 12:49:50 / v6.1.0 ('Old Devil') built on Mar 4 2013 09:10:42 2020-04-10 11:09:39
FromStats_BitRate : 14099446
FromStats_Duration : 01:31:39.077000000
FromStats_FrameCount : 131846
FromStats_StreamSize : 9691742722

Audio #1
ID : 2
Format : AC-3
Format/Info : Audio Coding 3
Commercial name : Dolby Digital
Codec ID : A_AC3
Duration : 1 h 31 min
Bit rate mode : Constant
Bit rate : 192 kb/s
Channel(s) : 2 channels
Channel layout : L R
Sampling rate : 48.0 kHz
Frame rate : 31.250 FPS (1536 SPF)
Bit depth : 16 bits
Compression mode : Lossy
Stream size : 126 MiB (1%)
Title : UKR (AMC)
Language : Ukrainian
Service kind : Complete Main
Default : Yes
Forced : Yes

Audio #2
ID : 3
Format : E-AC-3
Format/Info : Enhanced AC-3
Commercial name : Dolby Digital Plus
Codec ID : A_EAC3
Duration : 1 h 31 min
Bit rate mode : Constant
Bit rate : 224 kb/s
Channel(s) : 2 channels
Channel layout : L R
Sampling rate : 48.0 kHz
Frame rate : 31.250 FPS (1536 SPF)
Compression mode : Lossy
Stream size : 147 MiB (2%)
Title : ENG
Language : English
Service kind : Complete Main
Default : No
Forced : No
Statistics Tags Issue : v44.0.0 ('Domino') 64-bit 2020-04-09 12:49:50 / v6.1.0 ('Old Devil') built on Mar 4 2013 09:10:42 2020-04-10 11:09:39
FromStats_BitRate : 224000
FromStats_Duration : 01:31:39.040000000
FromStats_FrameCount : 171845
FromStats_StreamSize : 153973120

Text #1
ID : 4
Format : UTF-8
Codec ID : S_TEXT/UTF8
Codec ID/Info : UTF-8 Plain Text
Title : ENG
Language : English
Default : No
Forced : No
Statistics Tags Issue : v44.0.0 ('Domino') 64-bit 2020-04-09 12:49:50 / v6.1.0 ('Old Devil') built on Mar 4 2013 09:10:42 2020-04-10 11:09:39
FromStats_BitRate : 48
FromStats_Duration : 01:26:24.279000000
FromStats_FrameCount : 1337
FromStats_StreamSize : 31720

Text #2
ID : 5
Format : UTF-8
Codec ID : S_TEXT/UTF8
Codec ID/Info : UTF-8 Plain Text
Title : ENG SDH
Language : English
Default : No
Forced : No
Statistics Tags Issue : v44.0.0 ('Domino') 64-bit 2020-04-09 12:49:50 / v6.1.0 ('Old Devil') built on Mar 4 2013 09:10:42 2020-04-10 11:09:39
FromStats_BitRate : 51
FromStats_Duration : 01:31:10.765000000
FromStats_FrameCount : 1566
FromStats_StreamSize : 35545

Menu
00:00:00.000 : en:Studio Logo
00:00:17.000 : en:Miss Bentley talks about her time at Lake Como, Opening Credits
00:05:47.000 : en:Miss Bentley gets a visitor before going to drinks with Major Wilshaw
00:10:36.000 : en:Major Wilshaw invites Miss Bentley to play some tennis
00:16:15.000 : en:Major Wilshaw ignores Miss Bentley at dinner
00:16:48.000 : en:Miss Bentley and Major Wilshaw go boating
00:24:07.000 : en:Major Wilshaw asks Miss Bentley to dinner
00:26:53.000 : en:Miss Bentley and friends say farewell to Major Wilshaw
00:32:38.000 : en:Major Wilshaw returns to Lake Como
00:35:42.000 : en:Miss Bentley realizes who brought Major Wilshaw back to the island
00:38:30.000 : en:Major Wilshaw takes Miss Bentley and Miss Beaumont swimming
00:44:39.000 : en:Miss Bentley goes on her lunch date with Vittorio
00:47:03.000 : en:Miss Bentley defends herself from Vittorio's advances and thinks of an idea
00:51:26.000 : en:Signora Fascioli welcomes Miss Bentley back
00:54:18.000 : en:Miss Beaumont sees Miss Bentley's pictures of Vittorio
00:59:24.000 : en:Miss Bentley witnesses Miss Beaumont and Major Wilshaw's night out
01:02:28.000 : en:Major Wilshaw asks Miss Bentley for a favor
01:04:18.000 : en:Major Wilshaw performs his magic show
01:11:19.000 : en:Miss Bentley and Miss Beaumont argue at the reception
01:13:16.000 : en:Miss Bentley and Miss Beaumont have a heart to heart in the bathroom
01:14:45.000 : en:Miss Bentley goes on a picnic with her friends
01:19:13.000 : en:Major Wilshaw talks with Miss Bentley about her time at Lake Como
01:20:38.000 : en:Major Wilshaw joins Miss Bentley for breakfast
01:24:25.000 : en:Major Wilshaw and Miss Bentley discuss holiday plans
01:26:47.000 : en:End Credits
Скріншоти




За доріжку подяка п.: wrongman, kryk-v.ya.
Особиста подяка пану denixx за надану матеріальну допомогу на підтримку цього і майбутніх релізів.
Джерело:


Срібний реліз (на рейтинг впливає 50% завантаженого)
 Трекер:    Зареєстрований   

Завантажити / скачати фільм українською



відео для новачків



 Зареєстрований:   2020-04-10 14:21
 Розмір:   9.29 GB 
 Оцінка фільму:   8.2/10 (Голосів: 5)
   
Інші релізи
Ваш часовий пояс: GMT + 2 Години

Нова тема   Відповісти