Скинь маму з поїзда / Throw Momma From The Train (1987) 1080p 2xUkr/Eng | Sub Eng

Нові коментарі

Нова тема   Відповісти
Автор Повідомлення
Anonymous 







2020-04-10 08:34  
Скинь маму з поїзда / Throw Momma From The Train (1987) 1080p 2xUkr/Eng | Sub Eng

Скинь маму з поїзда / Throw Momma From The Train (1987) 1080p 2xUkr/Eng | Sub Eng


Жанр: комедія, кримінальний, трилер
Країна: США



Кінокомпанія: Orion Pictures
Режисер: Денні ДеВіто / Danny DeVito
Актори: Денні ДеВіто / Danny DeVito, Біллі Крістал / Billy Crystal, Кім Ґрейст / Kim Greist, Енн Рамсі / Anne Ramsey, Кейт Малґрю / Kate Mulgrew, Бренфорд Морсаліс / Branford Marsalis, Роб Рейнер / Rob Reiner, Брюс Кірбі / Bruce Kirby, Джой ДеПінто / Joey DePinto, Енні Росс / Annie Ross, Рає Бірк / Raye Birk, Опра Вінфрі / Oprah Winfrey та інші.

Сюжет:
Виявляється, навіть у надто різних людей може бути щось спільне. Об'єднуючим мотивом є бажання позбутися, причому найдієвішим способом, близької людини.

Один хоче вбити свою колишню дружину, яка все ще примудряється перетворювати його життя на пекло. Другий бачить сни про вільне радісне життя, якому не судилося збутися через буйну, деспотичну матусю, яка продовжує шпиняти свого сина, не звертаючи уваги на його вже зовсім не юний вік. Їм здається, що в такій ситуації кращим рішенням уникнути покарання - це помінятися вбивствами ...


Тривалість: 01:27:42
Якість: 1080p
Відео:
кодек:
розмір кадру: 1920х1040
бітрейт: 9900 кб/с

Аудіо # 1:
мова: українська
переклад: професійний дубльований
кодек: 2.0
бітрейт: 192 кб/с

Аудіо # 2:
мова: українська
переклад: багатоголосий закадровий
кодек: 2.0
бітрейт: 224 кб/с

Аудіо # 3:
мова: англійська
переклад: оригінал
кодек: 2.0
бітрейт: 1509 кб/с

Субтитри:
мова: українська (форсовані, на декілька неозвучених реплік)
тип: програмні (м'які)
формат: *.srt

Субтитри:
мова: англійська
тип: програмні (м'які)
формат: *.srt
Info
General
Unique ID : 230446790506460770415450485984078497057 (0xAD5E6FFC3A2D76778B7EB50EF5A68521)
Complete name : E:\Toloka\2020\Throw Momma from the Train (1987) 1080p.
Format :
Format version : Version 4
File size : 7.24 GiB
Duration : 1 h 27 min
Overall bit rate : 11.8 Mb/s
Encoded date : UTC 2020-04-10 05:25:18
Writing application : v6.1.0 ('Old Devil') built on Mar 4 2013 09:10:42
Writing library : libebml v1.3.0 + v1.4.0

Video
ID : 1
Format : AVC
Format/Info : Advanced Video Codec
Format profile : [email protected]
Format settings : CABAC / 4 Ref Frames
Format settings, CABAC : Yes
Format settings, RefFrames : 4 frames
Codec ID : V_MPEG4/ISO/AVC
Duration : 1 h 27 min
Bit rate : 9 900 kb/s
Width : 1 920 pixels
Height : 1 040 pixels
Display aspect ratio : 1.85:1
Frame rate mode : Constant
Frame rate : 23.976 (24000/1001) FPS
Color space : YUV
Chroma subsampling : 4:2:0
Bit depth : 8 bits
Scan type : Progressive
Bits/(Pixel*Frame) : 0.207
Stream size : 5.92 GiB (82%)
Writing library : core 116 r2074 2641b9e
Encoding settings : cabac=1 / ref=4 / deblock=1:-2:-2 / analyse=0x3:0x113 / me=umh / subme=10 / psy=1 / psy_rd=1.20:0.20 / mixed_ref=1 / me_range=32 / chroma_me=1 / trellis=2 / 8x8dct=1 / cqm=0 / deadzone=21,11 / fast_pskip=0 / chroma_qp_offset=-3 / threads=9 / sliced_threads=0 / nr=0 / decimate=0 / interlaced=0 / bluray_compat=0 / constrained_intra=0 / bframes=5 / b_pyramid=2 / b_adapt=2 / b_bias=0 / direct=3 / weightb=1 / open_gop=0 / weightp=2 / keyint=250 / keyint_min=2 / scenecut=40 / intra_refresh=0 / rc_lookahead=72 / rc=2pass / mbtree=1 / bitrate=9900 / ratetol=1.0 / qcomp=0.60 / qpmin=10 / qpmax=51 / qpstep=4 / cplxblur=20.0 / qblur=0.5 / vbv_maxrate=38000 / vbv_bufsize=38000 / nal_hrd=none / ip_ratio=1.40 / aq=1:1.00
Language : English
Default : Yes
Forced : No

Audio #1
ID : 2
Format : AC-3
Format/Info : Audio Coding 3
Commercial name : Dolby Digital
Codec ID : A_AC3
Duration : 1 h 27 min
Bit rate mode : Constant
Bit rate : 192 kb/s
Channel(s) : 2 channels
Channel layout : L R
Sampling rate : 48.0 kHz
Frame rate : 31.250 FPS (1536 SPF)
Bit depth : 16 bits
Compression mode : Lossy
Stream size : 120 MiB (2%)
Title : UKR (NLO, дубльований)
Language : Ukrainian
Service kind : Complete Main
Default : Yes
Forced : Yes

Audio #2
ID : 3
Format : AC-3
Format/Info : Audio Coding 3
Commercial name : Dolby Digital
Codec ID : A_AC3
Duration : 1 h 27 min
Bit rate mode : Constant
Bit rate : 224 kb/s
Channel(s) : 2 channels
Channel layout : L R
Sampling rate : 48.0 kHz
Frame rate : 31.250 FPS (1536 SPF)
Bit depth : 16 bits
Compression mode : Lossy
Stream size : 141 MiB (2%)
Title : UKR (Kino)
Language : Ukrainian
Service kind : Complete Main
Default : No
Forced : No

Audio #3
ID : 4
Format :
Format/Info : Digital Theater Systems
Codec ID : A_DTS
Duration : 1 h 27 min
Bit rate mode : Constant
Bit rate : 1 509 kb/s
Channel(s) : 2 channels
Channel layout : L R
Sampling rate : 48.0 kHz
Frame rate : 93.750 FPS (512 SPF)
Bit depth : 24 bits
Compression mode : Lossy
Stream size : 947 MiB (13%)
Language : English
Default : No
Forced : No

Text #1
ID : 5
Format : UTF-8
Codec ID : S_TEXT/UTF8
Codec ID/Info : UTF-8 Plain Text
Title : UKR (форсовані, на кілька неозвучених реплік)
Language : Ukrainian
Default : Yes
Forced : Yes

Text #2
ID : 6
Format : UTF-8
Codec ID : S_TEXT/UTF8
Codec ID/Info : UTF-8 Plain Text
Title : ENG
Language : English
Default : No
Forced : No

Menu
00:00:00.000 : en:00:00:00.000
00:06:08.159 : en:00:06:08.159
00:08:17.956 : en:00:08:17.956
00:13:10.456 : en:00:13:10.456
00:16:26.485 : en:00:16:26.485
00:19:48.854 : en:00:19:48.854
00:29:05.160 : en:00:29:05.160
00:35:31.212 : en:00:35:31.212
00:41:46.963 : en:00:41:46.963
00:49:01.897 : en:00:49:01.897
00:55:31.286 : en:00:55:31.286
01:00:28.625 : en:01:00:28.625
01:04:33.745 : en:01:04:33.745
01:10:33.312 : en:01:10:33.312
01:16:21.076 : en:01:16:21.076
01:23:08.734 : en:01:23:08.734
Скріншоти






За доріжки подяка п.: Bohdan237, Sando7, dvorsky, rooster
Особиста подяка пану denixx за надану матеріальну допомогу на підтримку цього і майбутніх релізів.
Джерело:


Срібний реліз (на рейтинг впливає 50% завантаженого)
 Трекер:    Зареєстрований   

Завантажити / скачати фільм українською



відео для новачків



 Зареєстрований:   2020-04-10 08:34
 Розмір:   7.24 GB 
 Оцінка фільму:   7.6/10 (Голосів: 5)
   
Ваш часовий пояс: GMT + 2 Години

Нова тема   Відповісти