Нова Людина-Павук. Дилогія / The Amazing Spider-Man. Dilogy (2012-2014) 1080p H.265 Ukr/Eng | Sub Eng

Нові коментарі

Нова тема   Відповісти
Автор Повідомлення
Anonymous 







2020-04-09 22:26  
Нова Людина-Павук. Дилогія / The Amazing Spider-Man. Dilogy (2012-2014) 1080p H.265 Ukr/Eng | Sub Eng

Нова Людина-Павук. Дилогія / The Amazing Spider-Man. Dilogy (2012-2014) 1080p H.265 Ukr/Eng | Sub Eng

1. 2.

1. Нова Людина-Павук / The Amazing Spider-Man (2012) (4K Remastered) 1080p H.265 Ukr/Eng | Sub Eng
Нова Людина-Павук / The Amazing Spider-Man (2012) [4K Remastered] 1080p H.265 Ukr/Eng | Sub Eng

Нова Людина-Павук. Дилогія / The Amazing Spider-Man. Dilogy (2012-2014) 1080p H.265 Ukr/Eng | Sub Eng


Жанр: фантастика, бойовик, пригодницький
Країна: США
Кінокомпанія: Columbia Pictures, Marvel Enterprises, Laura Ziskin Productions
Режисер: Марк Вебб / Marc Webb
Актори: Ендрю Ґарфілд / Andrew Garfield, Емма Стоун / Emma Stone, Ріс Айфенс / Rhys Ifans, Деніс Лірі / Denis Leary, Мартін Шин / Martin Sheen, Саллі Філд / Sally Field, Ембет Девідц / Embeth Davidtz, Кембелл Скотт / Campbell Scott, Ірфан Кхан / Irfan Khan, Кріс Зілка / Chris Zylka, С. Томас Хауелл / C. Thomas Howell та інші

Сюжет:
У дитинстві Пітер Паркер був покинутий своїми батьками, і тому виховувався дядьком і тіткою. Йшли роки, Пітер був звичайним зразковим школярем, піддавався нападкам хуліганів і був закоханий у свою однокласницю Гвен Стейсі, яка сама потай відповідала йому взаємністю. Але після укусу генетично зміненого павука, Пітер отримує неймовірні надздібності і його життя змінюється назавжди.

Однак його не перестає турбувати питання про те, що сталося з його батьками. Він знайомиться з давнім другом і партнером свого батька - генетиком Куртом Коннорсом, який разом з батьком Пітера розробляв формулу регенерації. Пітер допомагає її закінчити, а Коннорс, усе життя мріяв відновити свою праву руку, вводить формулу собі і стає ящіром. Усвідомлюючи свою провину, Пітер починає нове життя в образі таємничого супергероя Людини-павука і стає грозою злочинців, одночасно намагаючись знайти спосіб зупинити Коннорса.

Тривалість: 02:16:17
Якість: [4K Remastered]

Відео:
кодек: H.265 (HEVC)
розмір кадру: 1920 x 800
бітрейт: 5 176 кб/с
бітова глибина: 10 біт

Увага! Перед завантаженням переконайтесь, що ваш пристрій відтворення (та/або ПЗ) підтримує H.265 (HEVC)

Аудіо # 1:
мова: українська
переклад: професійний дубльований
кодек: AC-3 5.1
бітрейт: 640 кб/с

Аудіо # 2:
мова: англійська
переклад: оригінал
кодек: 5.1
бітрейт: 1510 кб/с

Субтитри # 1: (Forced)
мова: українська
тип: програмні (м'які)
формат: *.srt

Субтитри # 2-4: (Full, SDH, SDH-Colored)
мова: англійська
тип: програмні (м'які)
формат: *.srt


Info
Код:
General
Unique ID                                : 9296200588842595524336760674003094606 (0x6FE621362D6A27DF2099045F4D68C4E)
Complete name                            : 01. The Amazing Spider-Man (2012) 1080p H.265 [UKR_ENG] [Hurtom].
Format                                   :
Format version                           : Version 4
File size                                : 6.98 GiB
Duration                                 : 2 h 16 min
Overall bit rate                         : 7 328 kb/s
Movie name                               : Нова Людина-Павук / The Amazing Spider-Man (2012)
Encoded date                             : UTC 2020-04-09 12:39:33
Writing application                      : v20.0.0 ('I Am The Sun') 64-bit
Writing library                          : libebml v1.3.5 + v1.4.8
Cover                                    : Yes
Attachments                              : Cover.jpg

Video
ID                                       : 1
Format                                   : HEVC
Format/Info                              : High Efficiency Video Coding
Format profile                           : Main [email protected]@High
Codec ID                                 : V_MPEGH/ISO/HEVC
Duration                                 : 2 h 16 min
Bit rate                                 : 5 176 kb/s
Width                                    : 1 920 pixels
Height                                   : 800 pixels
Display aspect ratio                     : 2.40:1
Frame rate mode                          : Constant
Frame rate                               : 23.976 (24000/1001) FPS
Color space                              : YUV
Chroma subsampling                       : 4:2:0
Bit depth                                : 10 bits
Bits/(Pixel*Frame)                       : 0.141
Stream size                              : 4.93 GiB (71%)
Title                                    : Нова Людина-Павук / The Amazing Spider-Man (2012)
Writing library                          : x265 3.2+5-354901970679:[Windows][clang 8.0.1][64 bit] 10bit
Encoding settings                        : cpuid=1049583 / frame-threads=5 / numa-pools=4 / wpp / no-pmode / no-pme / no-psnr / no-ssim / log-level=3 / input-csp=1 / input-res=1920x800 / interlace=0 / total-frames=0 / level-idc=41 / high-tier=1 / uhd-bd=0 / ref=5 / allow-non-conformance / no-repeat-headers / annexb / no-aud / no-hrd / info / hash=0 / no-temporal-layers / open-gop / min-keyint=24 / keyint=240 / gop-lookahead=0 / bframes=14 / b-adapt=2 / b-pyramid / bframe-bias=0 / rc-lookahead=40 / lookahead-slices=5 / scenecut=40 / radl=0 / no-splice / no-intra-refresh / ctu=32 / min-cu-size=8 / rect / no-amp / max-tu-size=32 / tu-inter-depth=4 / tu-intra-depth=4 / limit-tu=1 / rdoq-level=1 / dynamic-rd=0.00 / no-ssim-rd / signhide / no-tskip / nr-intra=0 / nr-inter=0 / no-constrained-intra / no-strong-intra-smoothing / max-merge=5 / limit-refs=1 / no-limit-modes / me=3 / subme=7 / merange=57 / temporal-mvp / no-frame-dup / no-hme / weightp / no-weightb / no-analyze-src-pics / deblock=-3:-3 / no-sao / no-sao-non-deblock / rd=4 / selective-sao=0 / early-skip / no-rskip / no-fast-intra / no-tskip-fast / no-cu-lossless / b-intra / no-splitrd-skip / rdpenalty=0 / psy-rd=2.00 / psy-rdoq=1.00 / no-rd-refine / no-lossless / cbqpoffs=0 / crqpoffs=0 / rc=crf / crf=20.0 / qcomp=0.65 / qpstep=4 / stats-write=0 / stats-read=0 / vbv-maxrate=50000 / vbv-bufsize=50000 / vbv-init=0.9 / crf-max=0.0 / crf-min=0.0 / ipratio=1.40 / pbratio=1.30 / aq-mode=3 / aq-strength=1.00 / no-cutree / zone-count=0 / no-strict-cbr / qg-size=32 / no-rc-grain / qpmax=69 / qpmin=0 / no-const-vbv / sar=1 / overscan=0 / videoformat=5 / range=0 / colorprim=2 / transfer=2 / colormatrix=2 / chromaloc=0 / display-window=0 / cll=0,0 / min-luma=0 / max-luma=1023 / log2-max-poc-lsb=8 / vui-timing-info / vui-hrd-info / slices=1 / no-opt-qp-pps / no-opt-ref-list-length-pps / no-multi-pass-opt-rps / scenecut-bias=0.05 / no-opt-cu-delta-qp / no-aq-motion / no-hdr / no-hdr-opt / no-dhdr10-opt / no-idr-recovery-sei / analysis-reuse-level=5 / scale-factor=0 / refine-intra=0 / refine-inter=0 / refine-mv=1 / refine-ctu-distortion=0 / no-limit-sao / ctu-info=0 / no-lowpass-dct / refine-analysis-type=0 / copy-pic=1 / max-ausize-factor=1.0 / no-dynamic-refine / no-single-sei / no-hevc-aq / no-svt / no-field / qp-adaptation-range=1.00
Default                                  : Yes
Forced                                   : No
Color range                              : Limited

Audio #1
ID                                       : 2
Format                                   : AC-3
Format/Info                              : Audio Coding 3
Commercial name                          : Dolby Digital
Codec ID                                 : A_AC3
Duration                                 : 2 h 16 min
Bit rate mode                            : Constant
Bit rate                                 : 640 kb/s
Channel(s)                               : 6 channels
Channel layout                           : L R C LFE Ls Rs
Sampling rate                            : 48.0 kHz
Frame rate                               : 31.250 FPS (1536 SPF)
Compression mode                         : Lossy
Stream size                              : 624 MiB (9%)
Title                                    : / 5.1 Ch / 640 kbps / ПД / Blu-Ray
Language                                 : Ukrainian
Service kind                             : Complete Main
Default                                  : Yes
Forced                                   : Yes

Audio #2
ID                                       : 3
Format                                   :
Format/Info                              : Digital Theater Systems
Codec ID                                 : A_DTS
Duration                                 : 2 h 16 min
Bit rate mode                            : Constant
Bit rate                                 : 1 509 kb/s
Channel(s)                               : 6 channels
Channel layout                           : C L R Ls Rs LFE
Sampling rate                            : 48.0 kHz
Frame rate                               : 93.750 FPS (512 SPF)
Bit depth                                : 16 bits
Compression mode                         : Lossy
Stream size                              : 1.44 GiB (21%)
Title                                    : / 5.1 Ch / 1509 kbps / Original
Language                                 : English
Default                                  : No
Forced                                   : No

Text #1
ID                                       : 4
Format                                   : UTF-8
Codec ID                                 : S_TEXT/UTF8
Codec ID/Info                            : UTF-8 Plain Text
Duration                                 : 13 min 42 s
Bit rate                                 : 5 b/s
Count of elements                        : 10
Stream size                              : 552 Bytes (0%)
Title                                    : Forced
Language                                 : Ukrainian
Default                                  : Yes
Forced                                   : Yes

Text #2
ID                                       : 5
Format                                   : UTF-8
Codec ID                                 : S_TEXT/UTF8
Codec ID/Info                            : UTF-8 Plain Text
Duration                                 : 2 h 9 min
Bit rate                                 : 44 b/s
Count of elements                        : 1532
Stream size                              : 42.0 KiB (0%)
Title                                    : Full
Language                                 : English
Default                                  : No
Forced                                   : No

Text #3
ID                                       : 6
Format                                   : UTF-8
Codec ID                                 : S_TEXT/UTF8
Codec ID/Info                            : UTF-8 Plain Text
Duration                                 : 2 h 14 min
Bit rate                                 : 48 b/s
Count of elements                        : 1879
Stream size                              : 47.8 KiB (0%)
Title                                    : SDH
Language                                 : English
Default                                  : No
Forced                                   : No

Text #4
ID                                       : 7
Format                                   : UTF-8
Codec ID                                 : S_TEXT/UTF8
Codec ID/Info                            : UTF-8 Plain Text
Duration                                 : 2 h 14 min
Bit rate                                 : 62 b/s
Count of elements                        : 1879
Stream size                              : 61.2 KiB (0%)
Title                                    : SDH-Colored
Language                                 : English
Default                                  : No
Forced                                   : No

Menu
00:00:00.000                             : en:Chapter 1
00:07:45.923                             : en:Chapter 2
00:14:39.670                             : en:Chapter 3
00:22:57.542                             : en:Chapter 4
00:32:58.226                             : en:Chapter 5
00:41:25.065                             : en:Chapter 6
00:48:42.502                             : en:Chapter 7
00:55:10.932                             : en:Chapter 8
01:03:17.293                             : en:Chapter 9
01:12:29.011                             : en:Chapter 10
01:17:51.750                             : en:Chapter 11
01:24:38.948                             : en:Chapter 12
01:34:04.555                             : en:Chapter 13
01:42:59.548                             : en:Chapter 14
01:52:16.354                             : en:Chapter 15
02:00:52.912                             : en:Chapter 16
Світлини



2. Нова Людина-Павук 2: висока напруга / The Amazing Spider-Man 2 (2014) 1080p H.265 Ukr/Eng | Sub Eng
Нова Людина-Павук 2: висока напруга / The Amazing Spider-Man 2 (2014) 1080p H.265 Ukr/Eng | Sub Eng

Нова Людина-Павук. Дилогія / The Amazing Spider-Man. Dilogy (2012-2014) 1080p H.265 Ukr/Eng | Sub Eng


Жанр: екшн, пригодницький, фентезі
Країна: США
Кінокомпанія: Marvel Enterprises, Avi Arad Productions, Columbia Pictures
Режисер: Марк Вебб
Актори: Ендрю Ґарфілд, Емма Стоун, Джеймі Фокс, Дейн ДеГаан, Колм Фіор, Фелісіті Джонс, Пол Джаматті, Саллі Філд, Ембет Девідц, Кемпбелл Скотт

Сюжет:
Пітер Паркер під маскою Людини-Павука як і раніше рятує світ від лиходіїв і злочинців, а вільний час проводить зі своєю коханою Ґвен, але шкільна пора наближається до кінця, і попереду героїв чекає доросле життя. Пітер пам'ятає про те, що дав батькові Ґвен слово назавжди піти з життя дівчини, тим самим не піддавати її життя небезпеці. Однак стримати цю обіцянку не так просто. Доля готує Пітеру сюрпризи: на шляху героя з'явиться новий ворог - Електро, він знову зустрінеться з давнім приятелем Гаррі Озборном і дізнається багато нового про минуле своєї сім'ї.

Тривалість: 02:21:34
Якість:

Відео:
кодек: H.265 (HEVC)
розмір кадру: 1920 x 800
бітрейт: 8 799 кб/с
бітова глибина: 10 біт

Увага! Перед завантаженням переконайтесь, що ваш пристрій відтворення (та/або ПЗ) підтримує H.265 (HEVC)

Аудіо # 1:
мова: українська
переклад: професійний дубльований
кодек: AC-3 5.1
бітрейт: 640 кб/с

Аудіо # 2:
мова: англійська
переклад: оригінал
кодек: 5.1
бітрейт: 1510 кб/с

Субтитри # 1: (Forced)
мова: українська
тип: програмні (м'які)
формат: *.srt

Субтитри # 2-4: (Full, SDH, SDH-Colored)
мова: англійська
тип: програмні (м'які)
формат: *.srt


Info
Код:
General
Unique ID                                : 178256339802451049045066894321165760047 (0x861AEC193F441B631E537E4016C7762F)
Complete name                            : 02. The Amazing Spider-Man 2 (2014) 1080p H.265 [UKR_ENG] [Hurtom].
Format                                   :
Format version                           : Version 4
File size                                : 10.8 GiB
Duration                                 : 2 h 21 min
Overall bit rate                         : 11.0 Mb/s
Movie name                               : Нова Людина-Павук 2: Висока напруга / The Amazing Spider-Man 2 (2014)
Encoded date                             : UTC 2020-04-05 13:01:36
Writing application                      : v20.0.0 ('I Am The Sun') 64-bit
Writing library                          : libebml v1.3.5 + v1.4.8
Cover                                    : Yes
Attachments                              : Cover.jpg

Video
ID                                       : 1
Format                                   : HEVC
Format/Info                              : High Efficiency Video Coding
Format profile                           : Main [email protected]@High
Codec ID                                 : V_MPEGH/ISO/HEVC
Duration                                 : 2 h 21 min
Bit rate                                 : 8 799 kb/s
Width                                    : 1 920 pixels
Height                                   : 800 pixels
Display aspect ratio                     : 2.40:1
Frame rate mode                          : Constant
Frame rate                               : 23.976 (24000/1001) FPS
Color space                              : YUV
Chroma subsampling                       : 4:2:0
Bit depth                                : 10 bits
Bits/(Pixel*Frame)                       : 0.239
Stream size                              : 8.70 GiB (80%)
Title                                    : Нова Людина-Павук 2: Висока напруга / The Amazing Spider-Man 2 (2014)
Writing library                          : x265 3.2+5-354901970679:[Windows][clang 8.0.1][64 bit] 10bit
Encoding settings                        : cpuid=1049583 / frame-threads=5 / numa-pools=4 / wpp / no-pmode / no-pme / no-psnr / no-ssim / log-level=3 / input-csp=1 / input-res=1920x800 / interlace=0 / total-frames=0 / level-idc=41 / high-tier=1 / uhd-bd=0 / ref=5 / allow-non-conformance / no-repeat-headers / annexb / no-aud / no-hrd / info / hash=0 / no-temporal-layers / open-gop / min-keyint=24 / keyint=240 / gop-lookahead=0 / bframes=14 / b-adapt=2 / b-pyramid / bframe-bias=0 / rc-lookahead=40 / lookahead-slices=5 / scenecut=40 / radl=0 / no-splice / no-intra-refresh / ctu=32 / min-cu-size=8 / rect / no-amp / max-tu-size=32 / tu-inter-depth=4 / tu-intra-depth=4 / limit-tu=1 / rdoq-level=1 / dynamic-rd=0.00 / no-ssim-rd / signhide / no-tskip / nr-intra=0 / nr-inter=0 / no-constrained-intra / no-strong-intra-smoothing / max-merge=5 / limit-refs=1 / no-limit-modes / me=3 / subme=7 / merange=57 / temporal-mvp / no-frame-dup / no-hme / weightp / no-weightb / no-analyze-src-pics / deblock=-3:-3 / no-sao / no-sao-non-deblock / rd=4 / selective-sao=0 / early-skip / no-rskip / no-fast-intra / no-tskip-fast / no-cu-lossless / b-intra / no-splitrd-skip / rdpenalty=0 / psy-rd=2.00 / psy-rdoq=1.00 / no-rd-refine / no-lossless / cbqpoffs=0 / crqpoffs=0 / rc=crf / crf=21.0 / qcomp=0.65 / qpstep=4 / stats-write=0 / stats-read=0 / vbv-maxrate=50000 / vbv-bufsize=50000 / vbv-init=0.9 / crf-max=0.0 / crf-min=0.0 / ipratio=1.40 / pbratio=1.30 / aq-mode=3 / aq-strength=1.00 / no-cutree / zone-count=0 / no-strict-cbr / qg-size=32 / no-rc-grain / qpmax=69 / qpmin=0 / no-const-vbv / sar=1 / overscan=0 / videoformat=5 / range=0 / colorprim=2 / transfer=2 / colormatrix=2 / chromaloc=0 / display-window=0 / cll=0,0 / min-luma=0 / max-luma=1023 / log2-max-poc-lsb=8 / vui-timing-info / vui-hrd-info / slices=1 / no-opt-qp-pps / no-opt-ref-list-length-pps / no-multi-pass-opt-rps / scenecut-bias=0.05 / no-opt-cu-delta-qp / no-aq-motion / no-hdr / no-hdr-opt / no-dhdr10-opt / no-idr-recovery-sei / analysis-reuse-level=5 / scale-factor=0 / refine-intra=0 / refine-inter=0 / refine-mv=1 / refine-ctu-distortion=0 / no-limit-sao / ctu-info=0 / no-lowpass-dct / refine-analysis-type=0 / copy-pic=1 / max-ausize-factor=1.0 / no-dynamic-refine / no-single-sei / no-hevc-aq / no-svt / no-field / qp-adaptation-range=1.00
Default                                  : Yes
Forced                                   : No
Color range                              : Limited

Audio #1
ID                                       : 2
Format                                   : AC-3
Format/Info                              : Audio Coding 3
Commercial name                          : Dolby Digital
Codec ID                                 : A_AC3
Duration                                 : 2 h 21 min
Bit rate mode                            : Constant
Bit rate                                 : 640 kb/s
Channel(s)                               : 6 channels
Channel layout                           : L R C LFE Ls Rs
Sampling rate                            : 48.0 kHz
Frame rate                               : 31.250 FPS (1536 SPF)
Compression mode                         : Lossy
Stream size                              : 648 MiB (6%)
Title                                    : / 5.1 Ch / 640 kbps / ПД / Blu-Ray
Language                                 : Ukrainian
Service kind                             : Complete Main
Default                                  : Yes
Forced                                   : Yes

Audio #2
ID                                       : 3
Format                                   :
Format/Info                              : Digital Theater Systems
Codec ID                                 : A_DTS
Duration                                 : 2 h 21 min
Bit rate mode                            : Constant
Bit rate                                 : 1 509 kb/s
Channel(s)                               : 6 channels
Channel layout                           : C L R Ls Rs LFE
Sampling rate                            : 48.0 kHz
Frame rate                               : 93.750 FPS (512 SPF)
Bit depth                                : 24 bits
Compression mode                         : Lossy
Delay relative to video                  : 11 ms
Stream size                              : 1.49 GiB (14%)
Title                                    : / 5.1 Ch / 1509 kbps / Original
Language                                 : English
Default                                  : No
Forced                                   : No

Text #1
ID                                       : 4
Format                                   : UTF-8
Codec ID                                 : S_TEXT/UTF8
Codec ID/Info                            : UTF-8 Plain Text
Duration                                 : 2 h 13 min
Bit rate                                 : 0 b/s
Count of elements                        : 8
Stream size                              : 326 Bytes (0%)
Title                                    : Forced
Language                                 : Ukrainian
Default                                  : Yes
Forced                                   : Yes

Text #2
ID                                       : 5
Format                                   : UTF-8
Codec ID                                 : S_TEXT/UTF8
Codec ID/Info                            : UTF-8 Plain Text
Duration                                 : 2 h 10 min
Bit rate                                 : 56 b/s
Count of elements                        : 1715
Stream size                              : 54.4 KiB (0%)
Title                                    : Full
Language                                 : English
Default                                  : No
Forced                                   : No

Text #3
ID                                       : 6
Format                                   : UTF-8
Codec ID                                 : S_TEXT/UTF8
Codec ID/Info                            : UTF-8 Plain Text
Duration                                 : 2 h 19 min
Bit rate                                 : 64 b/s
Count of elements                        : 2144
Stream size                              : 66.1 KiB (0%)
Title                                    : SDH
Language                                 : English
Default                                  : No
Forced                                   : No

Text #4
ID                                       : 7
Format                                   : UTF-8
Codec ID                                 : S_TEXT/UTF8
Codec ID/Info                            : UTF-8 Plain Text
Duration                                 : 2 h 19 min
Bit rate                                 : 78 b/s
Count of elements                        : 2144
Stream size                              : 79.9 KiB (0%)
Title                                    : SDH-Colored
Language                                 : English
Default                                  : No
Forced                                   : No

Menu
00:00:00.000                             : en:Chapter 01
00:07:05.342                             : en:Chapter 02
00:14:28.201                             : en:Chapter 03
00:20:13.838                             : en:Chapter 04
00:29:27.099                             : en:Chapter 05
00:39:02.590                             : en:Chapter 06
00:50:56.804                             : en:Chapter 07
00:59:52.756                             : en:Chapter 08
01:08:53.129                             : en:Chapter 09
01:16:19.950                             : en:Chapter 10
01:25:27.706                             : en:Chapter 11
01:35:23.259                             : en:Chapter 12
01:41:30.334                             : en:Chapter 13
01:49:18.343                             : en:Chapter 14
01:57:00.639                             : en:Chapter 15
02:04:44.352                             : en:Chapter 16
Світлини




Джерело: &
Особиста оцінка: 6 - третій сорт - не брак


 Трекер:    Зареєстрований   

Завантажити / скачати фільм українською



відео для новачків



 Зареєстрований:   2020-04-09 22:26
 Розмір:   17.81 GB 
 Оцінка фільму:   9.6/10 (Голосів: 7)
   
Ваш часовий пояс: GMT + 2 Години

Нова тема   Відповісти