Двоє друзів та борсук / Two Buddies and a Badger / Knutsen & Ludvigsen og den fæle Rasputin (2015) 1080i

Нові коментарі

Нова тема   Відповісти
Автор Повідомлення
urij546724 
Відео Гуртом - фільмокрай
Відео Гуртом - фільмокрай


З нами з: 16.03.10
Востаннє: 09.03.21
Повідомлень: 5773

2020-04-09 20:08  
Двоє друзів та борсук / Two Buddies and a Badger / Knutsen & Ludvigsen og den fæle Rasputin (2015) 1080i



Жанр: мультфільм, пригоди, фантастика
Країна: Норвегія



Кіностудія / кінокомпанія: Tordenfilm AS, Qvisten Animation, Neofilm
Режисери: Расмус А. Сіверцен (Rasmus A. Sivertsen), Руна Шпаанс (Rune Spaans)
Актори: Джон Ф. Брунго (John F. Brungot), Герман Сабадо (Hermann Sabado), Сірі Нільсен (Siri Nilsen), Френк Кіос (Frank Kjosås), Фін Шау (Finn Schau), ондре Лерче (Sondre Lerche), Тронд-Вігго Торгерсен (Trond-Viggo Torgersen)...

Сюжет:
В один прекрасний день молода леді потрапляє в старий залізничний тунель, де живуть двоє нерозлучних друзів. Дівчина в розпачі - її батька, геніального вченого, взяв в заручники лиходій, який змушує його перетворювати людей на роботів. Двоє товаришів і дівчина, разом з хитрим борсуком, вирішують провести зухвалу рятувальну операцію.


Тривалість: 01:14:44
Якість: 1080i
Відео:
кодек:
розмір кадру: 1920 х 1080
бітрейт: 6650 кб/с
частота кадрів: 25 к/с (fps)

Аудіо #1:
мова: українська
переклад: багатоголосий закадровий
кодек: 2.0
бітрейт: 224 кб/с
запис звуку з каналу: Воля CINE+ KIDS HD
озвучено: на замовлення Воля CINE+
Media info:
General
ID : 1 (0x1)
Format : MPEG-TS
File size : 3.78 GiB
Duration : 1 h 14 min
Overall bit rate mode : Variable
Overall bit rate : 7 233 kb/s
Maximum Overall bit rate : 35.5 Mb/s

Video
ID : 4113 (0x1011)
Menu ID : 1 (0x1)
Format : AVC
Format/Info : Advanced Video Codec
Format profile : [email protected]
Format settings : CABAC / 4 Ref Frames
Format settings, CABAC : Yes
Format settings, Reference : 4 frames
Codec ID : 27
Duration : 1 h 14 min
Bit rate mode : Variable
Bit rate : 6 650 kb/s
Maximum bit rate : 40.0 Mb/s
Width : 1 920 pixels
Height : 1 080 pixels
Display aspect ratio : 16:9
Frame rate : 25.000 FPS
Standard : Component
Color space : YUV
Chroma subsampling : 4:2:0
Bit depth : 8 bits
Scan type : Interlaced
Scan type, store method : Separated fields
Scan order : Top Field First
Bits/(Pixel*Frame) : 0.128
Stream size : 3.47 GiB (92%)
Color range : Limited
Color primaries : BT.709
Transfer characteristics : BT.709
Matrix coefficients : BT.709

Audio
ID : 4352 (0x1100)
Menu ID : 1 (0x1)
Format : AC-3
Format/Info : Audio Coding 3
Commercial name : Dolby Digital
Codec ID : 129
Duration : 1 h 14 min
Bit rate mode : Constant
Bit rate : 224 kb/s
Channel(s) : 2 channels
Channel layout : L R
Sampling rate : 48.0 kHz
Frame rate : 31.250 FPS (1536 SPF)
Compression mode : Lossy
Stream size : 119 MiB (3%)
Language : Ukrainian
Service kind : Complete Main
Скріншоти:





Трейлери:

Семпл:
Джерело 1_________Джерело 2_________Джерело 3_________Джерело 4_________Джерело 5
У випадку, якщо з усіх джерел семпл видалять, прохання повідомити мені у ПРИВАТ


Подяка:

1. Пану Sando7 за запис з ТБ.


Реліз створено:


 Трекер:    Зареєстрований   

Завантажити / скачати мультфільм українською



відео для новачків



 Зареєстрований:   2020-04-09 20:08
 Розмір:   3.78 GB 
 Оцінка мультфільму:   4.6/10 (Голосів: 5)
 Прохання залишати коментарі і не тікати з роздачі :-)
   
І-р 
Свій


З нами з: 21.07.16
Востаннє: 08.03.21
Повідомлень: 145

2020-04-12 20:33  
У цьому мультику зовсім не дитячі жарти. Ось приклад діалогу:

- Я читав лише той журнал, що з бідними жінками.
- Якими бідними жінками?
- тими, що були такі бідні, що не мали одягу.

pvm 
Поважний учасник


З нами з: 05.03.10
Востаннє: 02.05.20
Повідомлень: 240

2020-04-28 23:45  
Це фільм?
bot 
робот


З нами з: 30.09.07
Востаннє: 26.05.05
Повідомлень: 27369

2020-05-03 06:49  
Тему перенесено з Фільми в HD до форуму Мультфільми в HD

Причина перенесення: Це мультфільм
urij546724

Ваш часовий пояс: GMT + 2 Години

Нова тема   Відповісти