Погані хлопці назавжди / Bad Boys for Life (2020) Remux 1080p Ukr/Eng | Sub Ukr/Eng

Нові коментарі

Нова тема   Відповісти
Автор Повідомлення
MakRA 
VIP


З нами з: 10.11.18
Востаннє: 25.02.21
Повідомлень: 1182

2020-04-09 16:09  
Погані хлопці назавжди / Bad Boys for Life (2020) Remux 1080p Ukr/Eng | Sub Ukr/Eng


Український постер:

Жанр: екшн, комедія, кримінальний
Країна: США , Мексика



Кінокомпанія: Sony Pictures, Columbia Pictures
Режисер: Аділь Ель Арбі [Adil El Arbi], Білал Фалла [Bilall Fallah]
Актори: Віл Сміт (Will Smith), Мартін Лоуренс (Martin Lawrence), Ванесса Енн Хадженс [Vanessa Hudgens], Александр Людвіг [Alexander Ludwig], Чарльз Мелтон [Charles Melton], Паола Нуньєс [Paola Nuñez], Кейт Дел Кастілло [Kate del Castillo], Ніккі Джем [Nicky Jam], Джо Пантольяно [Joe Pantolian]

Сюжет:
Маркус Бернетт (Мартін Лоуренс) нарешті втілив свою мрію і став поліцейським інспектором. Натомість його бойовий товариш Майк Лоурі (Вілл Сміт) не поспішає досягати хоча б якихось висот. Він саме зараз потерпає від кризи середнього віку і нічого не хоче робити. Проте збадьоритися доведеться, бо невблаганно жорстокий бос румунської мафії прагне помститися напарникам за шкоду, яку вони йому нанесли.


Тривалість: 02:03:58
Якість: Remux 1080p
Відео:
кодек:
розмір кадру: 1920 х 1080
бітрейт: 25,9 Mб/с

Аудіо # 1:
мова: українська
переклад: професійний дубльований
кодек: 5.1
бітрейт: 384 кб/с

Аудіо # 2:
мова: українська
переклад: професійний дубльований
кодек: 2.0
бітрейт: 192 кб/с

Аудіо # 3:
мова: англійська
переклад: оригінал
кодек: -HD MA 5.1
бітрейт: 2306 кб/с

Аудіо # 4:
мова: англійська
переклад: оригінал
кодек: 5.1
бітрейт: 640 кб/с

Субтитри # 1-2: (Forced) | (Full)
мова: українська
тип: програмні (м'які)
формат: *.srt

Субтитри # 3: (SDH)
мова: англійська
тип: програмні (м'які)
формат: *.srt

Збережено оригінальні розділи, як на Blu-ray.
Info
General
Unique ID : 113927793728457798521501486198826368514 (0x55B5B1E7D8F0B4DAF5CC80C47F127E02)
Complete name : I:\+ Фільми в HD\екшн, комедія, кримінальний\Bad Boys. Collection Remux 1080p\Bad Boys for Life (2020) Remux 1080p UkrEng Sub UkrEng [Hurtom].
Format :
Format version : Version 4
File size : 25.5 GiB
Duration : 2 h 3 min
Overall bit rate mode : Variable
Overall bit rate : 29.4 Mb/s
Movie name : Погані хлопці назавжди / Bad Boys for Life (2020) Remux 1080p Ukr/Eng | Sub Ukr/Eng [Hurtom]
Encoded date : UTC 2020-05-05 21:15:35
Writing application : v44.0.0 ('Domino') 64-bit
Writing library : libebml v1.3.10 + v1.5.2
Cover : Yes
Attachments : cover.jpg

Video
ID : 1
Format : AVC
Format/Info : Advanced Video Codec
Format profile : [email protected]
Format settings : CABAC / 2 Ref Frames
Format settings, CABAC : Yes
Format settings, Reference : 2 frames
Format settings, GOP : M=1, N=10
Codec ID : V_MPEG4/ISO/AVC
Duration : 2 h 3 min
Bit rate mode : Variable
Bit rate : 25.9 Mb/s
Width : 1 920 pixels
Height : 1 080 pixels
Display aspect ratio : 16:9
Frame rate mode : Constant
Frame rate : 23.976 (24000/1001) FPS
Color space : YUV
Chroma subsampling : 4:2:0
Bit depth : 8 bits
Scan type : Progressive
Bits/(Pixel*Frame) : 0.521
Stream size : 22.4 GiB (88%)
Title : Bad Boys for Life (2020) Remux 1080p Ukr/Eng | Sub Ukr/Eng [Hurtom]
Language : Ukrainian
Default : Yes
Forced : Yes

Audio #1
ID : 2
Format : AC-3
Format/Info : Audio Coding 3
Commercial name : Dolby Digital
Codec ID : A_AC3
Duration : 2 h 3 min
Bit rate mode : Constant
Bit rate : 384 kb/s
Channel(s) : 6 channels
Channel layout : L R C LFE Ls Rs
Sampling rate : 48.0 kHz
Frame rate : 31.250 FPS (1536 SPF)
Compression mode : Lossy
Stream size : 340 MiB (1%)
Title : DUB [iTunes] 5.1
Language : Ukrainian
Service kind : Complete Main
Default : Yes
Forced : Yes

Audio #2
ID : 3
Format : AC-3
Format/Info : Audio Coding 3
Commercial name : Dolby Digital
Codec ID : A_AC3
Duration : 2 h 3 min
Bit rate mode : Constant
Bit rate : 192 kb/s
Channel(s) : 2 channels
Channel layout : L R
Sampling rate : 48.0 kHz
Frame rate : 31.250 FPS (1536 SPF)
Compression mode : Lossy
Stream size : 170 MiB (1%)
Title : DUB [iTunes] 2.0
Language : Ukrainian
Service kind : Complete Main
Default : No
Forced : No

Audio #3
ID : 4
Format : XLL
Format/Info : Digital Theater Systems
Commercial name : -HD Master Audio
Codec ID : A_DTS
Duration : 2 h 3 min
Bit rate mode : Variable
Bit rate : 2 306 kb/s
Channel(s) : 6 channels
Channel layout : C L R Ls Rs LFE
Sampling rate : 48.0 kHz
Frame rate : 93.750 FPS (512 SPF)
Bit depth : 16 bits
Compression mode : Lossless
Stream size : 2.00 GiB (8%)
Title : Original -HD MA 5.1
Language : English
Default : No
Forced : No

Audio #4
ID : 5
Format : AC-3
Format/Info : Audio Coding 3
Commercial name : Dolby Digital
Codec ID : A_AC3
Duration : 2 h 3 min
Bit rate mode : Constant
Bit rate : 640 kb/s
Channel(s) : 6 channels
Channel layout : L R C LFE Ls Rs
Sampling rate : 48.0 kHz
Frame rate : 31.250 FPS (1536 SPF)
Compression mode : Lossy
Stream size : 568 MiB (2%)
Title : Original 5.1
Language : English
Service kind : Complete Main
Default : No
Forced : No

Text #1
ID : 6
Format : UTF-8
Codec ID : S_TEXT/UTF8
Codec ID/Info : UTF-8 Plain Text
Duration : 1 h 58 min
Bit rate : 4 b/s
Count of elements : 79
Stream size : 3.65 KiB (0%)
Title : Ukr (Forced) SRT
Language : Ukrainian
Default : Yes
Forced : Yes

Text #2
ID : 7
Format : UTF-8
Codec ID : S_TEXT/UTF8
Codec ID/Info : UTF-8 Plain Text
Duration : 2 h 2 min
Bit rate : 102 b/s
Count of elements : 1618
Stream size : 92.0 KiB (0%)
Title : Ukr (Full) SRT
Language : Ukrainian
Default : No
Forced : No

Text #3
ID : 8
Format : UTF-8
Codec ID : S_TEXT/UTF8
Codec ID/Info : UTF-8 Plain Text
Duration : 2 h 1 min
Bit rate : 114 b/s
Count of elements : 2227
Stream size : 101 KiB (0%)
Title : Eng (SDH) SRT
Language : English
Default : No
Forced : No

Menu
00:00:00.000 : :Chapter 1
00:07:32.869 : :Chapter 2
00:14:56.770 : :Chapter 3
00:23:43.380 : :Chapter 4
00:31:05.738 : :Chapter 5
00:38:43.195 : :Chapter 6
00:45:26.473 : :Chapter 7
00:53:27.454 : :Chapter 8
01:00:22.160 : :Chapter 9
01:07:29.378 : :Chapter 10
01:12:55.287 : :Chapter 11
01:22:11.676 : :Chapter 12
01:29:49.217 : :Chapter 13
01:36:47.927 : :Chapter 14
01:42:08.622 : :Chapter 15
01:53:55.328 : :Chapter 16
Скріншоти
Джерело: &
Особиста оцінка: 8 - мені сподобалося



Золотий реліз (завантажене не впливає на рейтинг)
 Трекер:    Зареєстрований   

Завантажити / скачати фільм українською



відео для новачків



 Зареєстрований:   2020-05-05 23:37
 Розмір:   25.49 GB 
 Оцінка фільму:   8.8/10 (Голосів: 29)
   
Cartwright 
VIP


З нами з: 23.03.13
Востаннє: 25.02.21
Повідомлень: 447

2020-04-19 12:54  
Вау, фільм просто бомбезний. Соні замутили власний Форсаж. Отримав задоволення від перегляду. Перші дві частини були повна лажа, їм би я поставив 5/10 і 4/10 відповідно, то тут я поставлю 8/10. Це абсолютно новий рівень, фільм не схожий на попередні частини, хоча пасхалок до них було море. Під час перегляду було більше асоціацій зі Смертельною зброєю, аніж з першими частинами. Навіть шкодую, що в кіно не сходив, реально один з найкращих фільмів цього року. Вони змішали Форсаж (колоритні персонажі), Смертельну зброю (класний сюжет), Джона Віка (круті екшн сцени) та Темного рицаря (потужний пафос та звук) і вийшов фільм Погані хлопці назавжди. Чекаю сиквел, це має бути цікава відповідь Форсажу.
MakRA 
VIP


З нами з: 10.11.18
Востаннє: 25.02.21
Повідомлень: 1182

2020-05-05 23:39  
Реліз оновлено 06.05.2020
Додано український дубляж АС3 5.1 @ 384 kbps

uaxpasha 
VIP


З нами з: 05.08.12
Востаннє: 24.02.21
Повідомлень: 360

2020-05-16 22:44  
Дууууже слабкий фільм. Атмосфера намагається копіювати свої фільми додаючи тупу лінзу де все дуже яскраво. Старих акторів з минулих фільмів було приємно побачити, але сюжет жахливий. Нова команда смазлівих хлопчиків та гарячих дівчаток додає шаблонності. Сюжет це найгірше, разом із жартами які натягують неприродньо, вони просто не заходять. Висока оцінка на imdb тільки руйнує попередні фільми, вони навіть близько не стоять.
А музика файна, Лорн Белф зробив добрий саундтрек
CGI теж дешевий і використовується погано.

Ваш часовий пояс: GMT + 2 Години

Нова тема   Відповісти