Манорама / Manorama Six Feet Under (2007) 1080p Ukr/Hin | sub Eng

Нові коментарі

Нова тема   Відповісти
Автор Повідомлення
urij546724 
Відео Гуртом - фільмокрай
Відео Гуртом - фільмокрай


З нами з: 16.03.10
Востаннє: 29.09.20
Повідомлень: 5701

2020-04-09 07:55  
Манорама / Manorama Six Feet Under (2007) 1080p Ukr/Hin | sub Eng



Жанр: драма, кримінальний, детектив, трилер
Країна: Індія



Кіностудія / кінокомпанія: Shemaroo Entertainment
Режисер: Навдейп Сінгх (Navdeep Singh)
Актори: Абхай Деол (Abhay Deol), Гул Панаг (Gul Panag), Райма Сен (Raima Sen), Саріка (Sarika), Кульбушан Харбанда (Kulbhushan Kharbanda), Вінай Патхак (Vinay Pathak), Пуан Гібсон (Poonam Gibson)...

Сюжет:
Провальний письменник, автор всього лише однієї книги, яку ніхто особливо не купує, Сатьявір (Абхай Деол), поліцейський, проти якого почали службове розслідування, ніяк не може знайти себе в реальному житті. Сім'я - дружина і дитина - не задовольняють його амбіції, він повинен утвердитися в житті як чоловік, як особистість! І ось, в його житті з'являється жінка, яка називає себе ім'ям Манорама (Саріка), і втягує його в круговорот подій, в яких йому належить виконати роль персонажа, придуманого ним же самим в його книзі - роль детектива. Йому доведеться зіткнутися і з політикою, і з сильними світу цього (Кулбхушан Кхарбанда), і відчути нові почуття: симпатії, розчарування, болі, віднаходження себе...


Тривалість: 02:09:36
Якість: 1080p
Відео:
кодек:
розмір кадру: 1920 х 1080
бітрейт: 4220 кб/с

Аудіо #1:
мова: українська
переклад: двоголосий закадровий
кодек: 2.0
бітрейт: 224 кб/с
запис звуку з каналу: Київ
озвучено: студія КІТ
примітка: стерео (запис з ТБ, почищений і накладений на оригінальну доріжку)

Аудіо #2:
мова: українська
переклад: двоголосий закадровий
кодек: 2.0
бітрейт: 192 кб/с
запис звуку з каналу: Київ
озвучено: студія КІТ
примітка: подвійне моно

Аудіо #2:
мова: хінді
переклад: оригінал
кодек: E- 5.1
бітрейт: 640 кб/с

Субтитри #1:
мова: англійська
тип: програмні (м'які)
формат: *.srt
Media info:
General
Unique ID : 174692838113624834904349441469556661286 (0x836C9DE68F1F172E7F55DF00FD171C26)
Format :
Format version : Version 4
File size : 4.78 GiB
Duration : 2 h 9 min
Overall bit rate mode : Variable
Overall bit rate : 5 268 kb/s
Movie name : Manorama Six Feet Under (2007) [ukr.KIT_hin, sub eng] 1080p [Hurtom] / Manorama Six Feet Under
Encoded by : DDR @ Desitorrents.tv
ContentType : Movie
Description : In The Desert, Nothing Is What it Seems
Released date : 2007-09-21
Encoded date : UTC 2020-04-08 18:52:58
Writing application : v45.0.0 ('Heaven in Pennies') 64-bit
Writing library : libebml v1.3.10 + v1.5.2 / DDR @ Desitorrents.tv
Cover : Yes
Comment : DDR @ Desitorrents.tv
Attachments : cover.jpg
ACTOR : Abhay Deol, Gul Panag, Raima Sen, Sarika, Kulbhushan Kharbanda, Vinay Pathak, Nawazuddin Siddiqui, Brijendra Kala, Yana Gupta, Nakshatra, Jogi Naidu, M. Rajesh, Tejpal Singh
ARTIST : Abhay Deol, Gul Panag, Raima Sen, Sarika, Kulbhushan Kharbanda, Vinay Pathak, Nawazuddin Siddiqui, Brijendra Kala, Yana Gupta, Nakshatra, Jogi Naidu, M. Rajesh, Tejpal Singh
DATE_RECORDED : 2007-09-21
DIRECTOR : Navdeep Singh
GENRE : Thriller, Crime, Mystery, Drama
PRODUCER : Ketan Maru
PRODUCTION_STUDIO : Shemaroo Entertainment
SCREENPLAY_BY : Devika Bhagat
SUMMARY : In The Desert, Nothing Is What it Seems
SYNOPSIS : Satyaveer is an engineer suspended for allegedly accepting a bribe. However, Satyaveer, proud author of a tawdry and thoroughly unsuccessful crime novel, is approached by a woman named Manorama to investigate her husband, whom she suspects of having an affair.
WRITTEN_BY : Devika Bhagat

Video
ID : 1
Format : AVC
Format/Info : Advanced Video Codec
Format profile : [email protected]
Format settings : CABAC / 3 Ref Frames
Format settings, CABAC : Yes
Format settings, Reference : 3 frames
Codec ID : V_MPEG4/ISO/AVC
Duration : 2 h 9 min
Bit rate mode : Variable
Bit rate : 4 220 kb/s
Maximum bit rate : 6 330 kb/s
Width : 1 920 pixels
Height : 1 080 pixels
Display aspect ratio : 16:9
Frame rate mode : Constant
Frame rate : 25.000 FPS
Color space : YUV
Chroma subsampling : 4:2:0
Bit depth : 8 bits
Scan type : Progressive
Bits/(Pixel*Frame) : 0.081
Stream size : 3.82 GiB (80%)
Title : Manorama Six Feet Under (2007) 1080p [Hurtom]
Writing library : core 118
Encoding settings : cabac=1 / ref=3 / deblock=1:0:0 / analyse=0x1:0x111 / me=umh / subme=10 / psy=1 / psy_rd=1.00:0.00 / mixed_ref=1 / me_range=24 / chroma_me=1 / trellis=2 / 8x8dct=0 / cqm=0 / deadzone=21,11 / fast_pskip=1 / chroma_qp_offset=-2 / threads=8 / sliced_threads=0 / nr=0 / decimate=1 / interlaced=0 / bluray_compat=0 / constrained_intra=0 / bframes=2 / b_pyramid=0 / b_adapt=2 / b_bias=0 / direct=3 / weightb=1 / open_gop=0 / weightp=2 / keyint=50 / keyint_min=26 / scenecut=0 / intra_refresh=0 / rc_lookahead=0 / rc=2pass / mbtree=1 / bitrate=4220 / ratetol=1.0 / qcomp=0.50 / qpmin=6 / qpmax=51 / qpstep=4 / cplxblur=20.0 / qblur=0.5 / vbv_maxrate=6330 / vbv_bufsize=8440 / nal_hrd=vbr / ip_ratio=1.40 / aq=1:1.00
Language : Hindi
Default : Yes
Forced : No

Audio #1
ID : 2
Format : AC-3
Format/Info : Audio Coding 3
Commercial name : Dolby Digital
Codec ID : A_AC3
Duration : 2 h 9 min
Bit rate mode : Constant
Bit rate : 224 kb/s
Channel(s) : 2 channels
Channel layout : L R
Sampling rate : 48.0 kHz
Frame rate : 31.250 FPS (1536 SPF)
Compression mode : Lossy
Stream size : 208 MiB (4%)
Title : Українська доріжка. Стерео. Студія КІТ.
Language : Ukrainian
Service kind : Complete Main
Default : Yes
Forced : Yes

Audio #2
ID : 3
Format : AC-3
Format/Info : Audio Coding 3
Commercial name : Dolby Digital
Codec ID : A_AC3
Duration : 2 h 9 min
Bit rate mode : Constant
Bit rate : 192 kb/s
Channel(s) : 2 channels
Channel layout : L R
Sampling rate : 48.0 kHz
Frame rate : 31.250 FPS (1536 SPF)
Compression mode : Lossy
Stream size : 178 MiB (4%)
Title : Українська доріжка. Стерео. Студія КІТ.
Language : Ukrainian
Service kind : Complete Main
Default : No
Forced : No

Audio #3
ID : 4
Format : E-AC-3
Format/Info : Enhanced AC-3
Commercial name : Dolby Digital Plus
Codec ID : A_EAC3
Duration : 2 h 9 min
Bit rate mode : Constant
Bit rate : 640 kb/s
Channel(s) : 6 channels
Channel layout : L R C LFE Ls Rs
Sampling rate : 48.0 kHz
Frame rate : 31.250 FPS (1536 SPF)
Compression mode : Lossy
Stream size : 594 MiB (12%)
Title : Оригінальна доріжка
Language : Hindi
Service kind : Complete Main
Default : No
Forced : No

Text
ID : 5
Format : UTF-8
Codec ID : S_TEXT/UTF8
Codec ID/Info : UTF-8 Plain Text
Duration : 2 h 9 min
Bit rate : 57 b/s
Count of elements : 1358
Stream size : 54.0 KiB (0%)
Title : Англійські субтитри
Language : English
Default : No
Forced : No
Скріншоти:





Трейлери:

Семпл:
Джерело 1_________Джерело 2_________Джерело 3_________Джерело 4_________Джерело 5
У випадку, якщо з усіх джерел семпл видалять, прохання повідомити мені у ПРИВАТ


Реліз створено:


 Трекер:    Зареєстрований   

Завантажити / скачати фільм українською



відео для новачків



 Зареєстрований:   2020-04-09 07:55
 Розмір:   4.78 GB 
 Оцінка фільму:   7/10 (Голосів: 3)
 Прохання залишати коментарі і не тікати з роздачі :-)
   
taksist 
Попереджень: 1
Попереджень: 1 


З нами з: 10.12.12
Востаннє: 29.09.20
Повідомлень: 457

2020-04-09 08:31  
круговорот - круговерть, придуманого - вигаданого
igor911 
Модератор відео


З нами з: 18.01.08
Востаннє: 29.09.20
Повідомлень: 15007

2020-04-09 08:32  
urij546724 написано:
містерія, триллер

Mystery - це детектив, а не містерія. Трилер з однією 'л' українською, треба виправити.

urij546724 
Відео Гуртом - фільмокрай
Відео Гуртом - фільмокрай


З нами з: 16.03.10
Востаннє: 29.09.20
Повідомлень: 5701

2020-04-09 09:05  
taksist http://sum.in.ua/s/krughovorot

Додано через 18 хвилин 4 секунди:

igor911, виправив

Ваш часовий пояс: GMT + 2 Години

Нова тема   Відповісти