Чудотворці (Сезон 2) / Miracle Workers (Season 2) (2020)

Нові коментарі

Нова тема   Відповісти
Автор Повідомлення
DniproFilm 
VIP


З нами з: 10.10.18
Востаннє: 25.09.20
Повідомлень: 432

2020-04-09 00:48  
Чудотворці (Сезон 2) / Miracle Workers (Season 2) (2020)

Чудотворці (Сезон 2) / Miracle Workers (Season 2) (2020)


Жанр: комедія, драма, фантастика
Країна: США


Кінокомпанія / телеканал: Broadway Video, Studio T

Режисер: Моріс Меребл, Йорма Такконе, Райан Кейс
Актори/ролі озвучують: Стів Бушемі, Деніел Редкліфф, Джеральдін Вісванатхан, Каран Соні, Саша Компере, Джон Басс, Лоллі Адефоп, Калеб Емері, Тереза О’Ші та інші

Сюжет:
Всі вірять, що існують небеса і потойбічне життя. А значить існує і Бог, ангели та інші містичні речі. Так і є, і Небесна канцелярія дійсно існує, тільки не в такому вигляді як звикли думати люди. А це складна система, де є співробітники, які відповідають за ті чи інші речі, і існує своя ієрархія. Наприклад, головні герої ангели Крейг і Еліза виконують таку роботу і сподіваються, що в світі не буде нічого поганого відбуватися. Але ось одного разу вони дізнаються, що їх начальник (тобто Бог) готує щось дуже небезпечне для людського світу.

А саме через час до них доходить інформація, що Бог має намір просто стерти з лиця землі рід людський. Все тому що він зажурився і втомився бачити, що діється на Землі. Ангели розуміють, що це викличе не тільки катастрофу в світі, але і у Всесвіті. А люди їм подобаються, тому головні герої приймають рішення допомогти їм. Вони просять у Бога три тижні, і обіцяють, що зможуть переконати його не нищити планету. Для цього їм необхідно зблизити двох людей, які вже багато років самотні. Єдине що може дати людському людству вижити, це показати Богу що ще є в світі любов і добро. Але як поєднати двох людей, якщо вони мають різний характер і переваги? Завдання не з легких для ангелів...


Тривалість: 1 серія: ~ 22 хв. (цілком серій: 10)
Перелік серій

01. Dark Ages: Graduation
02. Dark Ages: Help Wanted
03. Dark Ages: Road Trip
04. Dark Ages: Internship
05. Dark Ages: Holiday
06. Dark Ages: Music Festival
07. Dark Ages: Day in Court
08. Dark Ages: First Date
09. Dark Ages: Moving Out Part 1
10. Dark Ages: Moving Out Part 2
Якість:
Відео:
кодек:
розмір кадру: 720x400
бітрейт: ~1800 кб/с

Аудіо # 1:
мова: українська
переклад: багатоголосий закадровий
кодек: 5.1
бітрейт: 384 кб/с

Джерело озвучення:
DniproFilm
Info

Video
ID : 0
Format : MPEG-4 Visual
Format profile : Advanced [email protected]
Format settings : BVOP2
Format settings, BVOP : 2
Format settings, QPel : No
Format settings, GMC : No warppoints
Format settings, Matrix : Default (H.263)
Muxing mode : Packed bitstream
Codec ID :
Codec ID/Hint :
Duration : 21 min 25 s
Bit rate : 1 797 kb/s
Width : 720 pixels
Height : 400 pixels
Display aspect ratio : 16:9
Frame rate : 23.976 (24000/1001) FPS
Color space : YUV
Chroma subsampling : 4:2:0
Bit depth : 8 bits
Scan type : Progressive
Compression mode : Lossy
Bits/(Pixel*Frame) : 0.260
Stream size : 275 MiB (82%)
Writing library : 67

Audio
ID : 1
Format : AC-3
Format/Info : Audio Coding 3
Commercial name : Dolby Digital
Codec ID : 2000
Duration : 21 min 25 s
Bit rate mode : Constant
Bit rate : 384 kb/s
Channel(s) : 6 channels
Channel layout : L R C LFE Ls Rs
Sampling rate : 48.0 kHz
Frame rate : 31.250 FPS (1536 SPF)
Compression mode : Lossy
Stream size : 58.8 MiB (18%)
Alignment : Aligned on interleaves
Interleave, duration : 42 ms (1.00 video frame)
Interleave, preload duratio : 512 ms
Service kind : Complete Main
Скріншоти




Авторський реліз (завантажувати можна без реєстрації)
 Трекер:    Зареєстрований   

Завантажити / скачати серіал українською



відео для новачків



 Зареєстрований:   2020-04-10 12:13
 Розмір:   3.06 GB 
 Оцінка серіалу:   6.2/10 (Голосів: 15)
   
DniproFilm 
VIP


З нами з: 10.10.18
Востаннє: 25.09.20
Повідомлень: 432

2020-04-10 12:14  
Додано 4-10 серії.

jjb36128 
Частий відвідувач


З нами з: 25.01.18
Востаннє: 09.08.20
Повідомлень: 28

2020-04-22 20:04  
Ну і муйня!
Спойлер: Події розгортаються навколо клоаки.

dxs08 
Забанено
Забанено


З нами з: 15.02.18
Востаннє: 27.04.20
Повідомлень: 14

2020-04-22 20:07  
jjb36128 написано:
Події розгортаються навколо клоаки

Так а що ж ви хотіли? Це ж DniproFilm. )

rx1nn 
Новенький


З нами з: 07.04.20
Востаннє: 29.04.20
Повідомлень: 2

2020-04-22 20:08  
Нічого тупішого в житті не бачив...
Mirca 
Частий відвідувач


З нами з: 26.12.10
Востаннє: 09.07.20
Повідомлень: 47

2020-05-15 15:06  
Яка прекрасна люта дічь <3 Зайде любителям чорного гумору та іронії.
Редкліфф тішить неймовірно Wide grin

Ваш часовий пояс: GMT + 2 Години

Нова тема   Відповісти