Чудотворці (Сезон 2) / Miracle Workers (Season 2) (2020) 720p Ukr/Eng

Нові коментарі

Нова тема   Відповісти
Автор Повідомлення
DniproFilm 
VIP


З нами з: 10.10.18
Востаннє: 19.11.20
Повідомлень: 443

2020-04-08 23:48  
Чудотворці (Сезон 2) / Miracle Workers (Season 2) (2020) 720p Ukr/Eng

Чудотворці (Сезон 2) / Miracle Workers (Season 2) (2020) 720p Ukr/Eng


Жанр: комедія, драма, фантастика
Країна: США


Кінокомпанія / телеканал: Broadway Video, Studio T

Режисер: Моріс Меребл, Йорма Такконе, Райан Кейс
Актори/ролі озвучують: Стів Бушемі, Деніел Редкліфф, Джеральдін Вісванатхан, Каран Соні, Саша Компере, Джон Басс, Лоллі Адефоп, Калеб Емері, Тереза О’Ші та інші

Сюжет:
Всі вірять, що існують небеса і потойбічне життя. А значить існує і Бог, ангели та інші містичні речі. Так і є, і Небесна канцелярія дійсно існує, тільки не в такому вигляді як звикли думати люди. А це складна система, де є співробітники, які відповідають за ті чи інші речі, і існує своя ієрархія. Наприклад, головні герої ангели Крейг і Еліза виконують таку роботу і сподіваються, що в світі не буде нічого поганого відбуватися. Але ось одного разу вони дізнаються, що їх начальник (тобто Бог) готує щось дуже небезпечне для людського світу.

А саме через час до них доходить інформація, що Бог має намір просто стерти з лиця землі рід людський. Все тому що він зажурився і втомився бачити, що діється на Землі. Ангели розуміють, що це викличе не тільки катастрофу в світі, але і у Всесвіті. А люди їм подобаються, тому головні герої приймають рішення допомогти їм. Вони просять у Бога три тижні, і обіцяють, що зможуть переконати його не нищити планету. Для цього їм необхідно зблизити двох людей, які вже багато років самотні. Єдине що може дати людському людству вижити, це показати Богу що ще є в світі любов і добро. Але як поєднати двох людей, якщо вони мають різний характер і переваги? Завдання не з легких для ангелів...


Тривалість: 1 серія: ~ 22 хв. (цілком серій: 10)
Перелік серій

01. Dark Ages: Graduation
02. Dark Ages: Help Wanted
03. Dark Ages: Road Trip
04. Dark Ages: Internship
05. Dark Ages: Holiday
06. Dark Ages: Music Festival
07. Dark Ages: Day in Court
08. Dark Ages: First Date
09. Dark Ages: Moving Out Part 1
10. Dark Ages: Moving Out Part 2
Якість:
Відео:
кодек:
розмір кадру: 1280x720
бітрейт: ~4000 кб/с

Аудіо # 1:
мова: українська
переклад: багатоголосий закадровий
кодек: 5.1
бітрейт: 384 кб/с

Аудіо # 2:
мова: англійська
переклад: оригінал
кодек: 5.1
бітрейт: 640 кб/с

Джерело озвучення:
DniproFilm
Info

Video
ID : 1
Format : AVC
Format/Info : Advanced Video Codec
Format profile : [email protected]
Format settings : CABAC / 4 Ref Frames
Format settings, CABAC : Yes
Format settings, Reference : 4 frames
Codec ID : V_MPEG4/ISO/AVC
Duration : 21 min 25 s
Bit rate : 3 997 kb/s
Width : 1 280 pixels
Height : 720 pixels
Display aspect ratio : 16:9
Frame rate mode : Constant
Frame rate : 23.976 (24000/1001) FPS
Color space : YUV
Chroma subsampling : 4:2:0
Bit depth : 8 bits
Scan type : Progressive
Bits/(Pixel*Frame) : 0.181
Stream size : 612 MiB (80%)
Language : English
Default : Yes
Forced : No
Color range : Limited
Color primaries : BT.709
Transfer characteristics : BT.709
Matrix coefficients : BT.709

Audio #1
ID : 2
Format : AC-3
Format/Info : Audio Coding 3
Commercial name : Dolby Digital
Codec ID : A_AC3
Duration : 21 min 25 s
Bit rate mode : Constant
Bit rate : 384 kb/s
Channel(s) : 6 channels
Channel layout : L R C LFE Ls Rs
Sampling rate : 48.0 kHz
Frame rate : 31.250 FPS (1536 SPF)
Compression mode : Lossy
Stream size : 58.8 MiB (8%)
Title : DniproFilm
Language : Ukrainian
Service kind : Complete Main
Default : Yes
Forced : No

Audio #2
ID : 3
Format : AC-3
Format/Info : Audio Coding 3
Commercial name : Dolby Digital
Codec ID : A_AC3
Duration : 21 min 25 s
Bit rate mode : Constant
Bit rate : 640 kb/s
Channel(s) : 6 channels
Channel layout : L R C LFE Ls Rs
Sampling rate : 48.0 kHz
Frame rate : 31.250 FPS (1536 SPF)
Compression mode : Lossy
Stream size : 98.1 MiB (13%)
Language : English
Service kind : Complete Main
Default : No
Forced : No
Скріншоти




Авторський реліз (завантажувати можна без реєстрації)
 Трекер:    Зареєстрований   

Завантажити / скачати серіал українською



відео для новачків



 Зареєстрований:   2020-04-10 11:13
 Розмір:   7.03 GB 
 Оцінка серіалу:   7.9/10 (Голосів: 12)
   
DniproFilm 
VIP


З нами з: 10.10.18
Востаннє: 19.11.20
Повідомлень: 443

2020-04-10 11:14  
Оновлено. Додано 4-10 серії.

Ваш часовий пояс: GMT + 2 Години

Нова тема   Відповісти