Людина майбутнього / The Tomorrow Man (2019) 1080p Eng | sub Ukr/Eng

Нові коментарі

Нова тема   Відповісти
Автор Повідомлення
Anonymous 







2020-04-08 22:33  
Людина майбутнього / The Tomorrow Man (2019) 1080p Eng | sub Ukr/Eng

Людина майбутнього / The Tomorrow Man (2019) 1080p Eng | sub Ukr/Eng
Оригінальні постери:







Жанр: драма, мелодрама
Країна: США



Кінокомпанія: Symbolic Exchange, Two Sues Casting & Locations, Anonymous Content
Режисер: Ноубл Джонс / Noble Jones
Актори: Джон Літгоу / John Lithgow, Блайт Даннер / Blythe Danner, Кетрін Аселтон / Katie Aselton, Софі Тетчер / Sophie Thatcher, Ів Харлоу / Eve Harlow та інші.

Сюжет:
Коханню кожен вік підвладний - саме це доводять собі та оточуючим Ед та Ронні. Ед переживає про майбутнє і готується до апокаліпсису, а Ронні не може забути минуле. Але разом вони зможуть згадати, що означає жити тут і зараз.

Фільм особливо актуальний зараз, коли коронавірус косить людей похилого віку...
Офіційний трейлер:


Рейтинг MPAA: PG-13 - дітям до 13 років перегляд не бажаний
Вікова категорія: 12+

Тривалість: 01:35:18
Якість: 1080p [Amazon]
Відео:
кодек:
розмір кадру: 1920 х 800
бітрейт: 4129 кб/с

Аудіо:
мова: англійська
переклад: оригінал
кодек: 5.1
бітрейт: 448 кб/с

Субтитри # 1:
мова: українська
тип: програмні (м'які)
формат: *.srt
перекладач: Володимир Фатун

Субтитри # 2-3:
мова: англійська (повні, SDH)
тип: програмні (м'які)
формат: *.srt
Info
Код:
Complete name               : The Tomorrow Man (2019) [Eng sub.Ukr,Eng] 1080p AMZN [Hurtom].
Format                      :
Format version              : Version 4
File size                   : 3.05 GiB
Duration                    : 1 h 35 min
Overall bit rate            : 4 579 kb/s
Movie name                  : Людина майбутнього / The Tomorrow Man (2019) [Eng sub.Ukr,Eng] 1080p AMZN [Hurtom]
Encoded date                : UTC 2020-04-08 19:52:14
Writing application         : v45.0.0 ('Heaven in Pennies') 64-bit
Writing library             : libebml v1.3.10 + v1.5.2
Cover                       : Yes
Attachments                 : cover.jpg

Video
ID                          : 1
Format                      : AVC
Format/Info                 : Advanced Video Codec
Format profile              : [email protected]
Format settings             : CABAC / 4 Ref Frames
Format settings, CABAC      : Yes
Format settings, Reference  : 4 frames
Codec ID                    : V_MPEG4/ISO/AVC
Duration                    : 1 h 35 min
Bit rate mode               : Constant
Bit rate                    : 4 129 kb/s
Nominal bit rate            : 10 000 kb/s
Width                       : 1 920 pixels
Height                      : 800 pixels
Display aspect ratio        : 2.40:1
Frame rate mode             : Constant
Frame rate                  : 23.976 (24000/1001) FPS
Color space                 : YUV
Chroma subsampling          : 4:2:0
Bit depth                   : 8 bits
Scan type                   : Progressive
Bits/(Pixel*Frame)          : 0.112
Stream size                 : 2.75 GiB (90%)
Title                       : Людина майбутнього / The Tomorrow Man (2019) 1080p [NTG]
Language                    : English
Default                     : Yes
Forced                      : No
Color range                 : Limited
Color primaries             : BT.709
Transfer characteristics    : BT.709
Matrix coefficients         : BT.709

Audio
ID                          : 2
Format                      : AC-3
Format/Info                 : Audio Coding 3
Commercial name             : Dolby Digital
Codec ID                    : A_AC3
Duration                    : 1 h 35 min
Bit rate mode               : Constant
Bit rate                    : 448 kb/s
Channel(s)                  : 6 channels
Channel layout              : L R C LFE Ls Rs
Sampling rate               : 48.0 kHz
Frame rate                  : 31.250 FPS (1536 SPF)
Compression mode            : Lossy
Stream size                 : 305 MiB (10%)
Language                    : English
Service kind                : Complete Main
Default                     : Yes
Forced                      : No

Text #1
ID                          : 3
Format                      : UTF-8
Codec ID                    : S_TEXT/UTF8
Codec ID/Info               : UTF-8 Plain Text
Duration                    : 1 h 33 min
Bit rate                    : 67 b/s
Count of elements           : 1003
Stream size                 : 46.4 KiB (0%)
Title                       : Ukr Full [iTunes]
Language                    : Ukrainian
Default                     : Yes
Forced                      : Yes

Text #2
ID                          : 4
Format                      : UTF-8
Codec ID                    : S_TEXT/UTF8
Codec ID/Info               : UTF-8 Plain Text
Duration                    : 1 h 29 min
Bit rate                    : 44 b/s
Count of elements           : 941
Stream size                 : 29.3 KiB (0%)
Title                       : Eng Full
Language                    : English
Default                     : No
Forced                      : No

Text #3
ID                          : 5
Format                      : UTF-8
Codec ID                    : S_TEXT/UTF8
Codec ID/Info               : UTF-8 Plain Text
Duration                    : 1 h 30 min
Bit rate                    : 47 b/s
Count of elements           : 1044
Stream size                 : 31.7 KiB (0%)
Title                       : Eng SDH
Language                    : English
Default                     : No
Forced                      : No



Джерело: &


 Трекер:    Зареєстрований   

Завантажити / скачати фільм українською



відео для новачків



 Зареєстрований:   2020-04-08 22:33
 Розмір:   3.05 GB 
 Оцінка фільму:   10/10 (Голосів: 7)
 ЗАЛИШАЙТЕСЬ ЯКОМОГА ДОВШЕ НА РОЗДАЧІ! ЗАВАНТАЖИВ САМ - ДАЙ ЗАВАНТАЖИТИ ІНШИМ!
   
Інші релізи
bozuron 
Частий відвідувач


З нами з: 12.02.17
Востаннє: 30.11.20
Повідомлень: 45

2020-04-21 15:00  
що треба зробити щоб цей кодек запрацював?
VLC його не тягне
тормозить і підвисає зображення

Anonymous 







2020-04-21 15:14  
bozuron написано:
тормозить і підвисає зображення

Якесь дуже старе "залізо"? В загальному випадку - спробувати встановити K-Lite Codec Pack Standard/Full/Mega разом з MPC-HC, в діалозі при установці переконатись, що ввімкнене апаратне прискорення.

bozuron 
Частий відвідувач


З нами з: 12.02.17
Востаннє: 30.11.20
Повідомлень: 45

2020-04-21 15:21  
та да...
залізо старе...
правда 1080 в іншому форматі тягне...
відяха крута

Ваш часовий пояс: GMT + 2 Години

Нова тема   Відповісти