Сицилійський клан [Англійська версія] / Le clan des Siciliens / The Sicilian Clan [English Version] (1969) AVC Ukr/Eng | Sub Eng

Нові коментарі

Нова тема   Відповісти
Автор Повідомлення
21jumpstreet 
VIP


З нами з: 03.07.12
Востаннє: 10.07.20
Повідомлень: 1094

2020-04-08 22:01  
Сицилійський клан [Англійська версія] / Le clan des Siciliens / The Sicilian Clan [English Version] (1969) AVC Ukr/Eng | Sub Eng

Сицилійський клан [Англійська версія] / Le clan des Siciliens / The Sicilian Clan [English Version] (1969) AVC Ukr/Eng | Sub Eng


Жанр: драма, кримінал
Країна: Франція



Кінокомпанія: 20th century fox, Les Films du Siècle
Режисер: Анрі Верней
Актори: Жан Габен, Ален Делон, Ліно Вентура, Ірина Демік, Амедео Наццарі, Філіпп Баронне, Карен Блангернон, Ів Бренвіль, Жерар Бур, Еліза Чегані

Сюжет:
Молодий гангстер Роже Сарте здійснює втечу з фургона, що перевозить його у в'язницю з Палацу Правосуддя. Все проходить вдало завдяки допомозі глави сіцілійського клану Вітторіо Маналезе. Роже потрібний йому для участі в зухвалому пограбуванні. Клан має намір здійснити крадіжку унікальної колекції коштовностей, зібраної в Римі для міжнародної виставки.
До операції готуються довго і ретельно. Оскільки виставка відбувається в Нью-Йорку, американський друг Вітторіо Тоні Нікозіа пропонує привести план у виконання під час польоту і захопити здобич.


Тривалість: 01:58:23
Якість:
Відео:
кодек: MPEG-4
розмір кадру: 1024 х 436
бітрейт: 2500 кб/с

Аудіо # 1:
мова: українська
переклад: двоголосий закадровий Стар Майстер
кодек: 2.0
бітрейт: 192 кб/с
примітка: озвучення накладено поверх рос. закадру, та його майже не чутно
Інформація про озвучення:
Ролі озвучували: Олег Лепенець та Тетяна Антонова
Аудіо # 2:
мова: англійська
переклад: професійний дубльований
кодек: 1.0
бітрейт: 192 кб/с

Субтитри:
мова: англійська
тип: програмні (м'які)
формат: *.srt
Скріншоти



Info:
C:\Sicilian clan (1969) AVC [Ukr,Eng] [Hurtom].
General
Unique ID : 90230022778595372813749172176056844955 (0x43E1AB9727E02922ABC08255D18D829B)
Complete name : C:\Sicilian clan (1969) AVC [Ukr,Eng] [Hurtom].
Format :
Format version : Version 4 / Version 2
File size : 2.39 GiB
Duration : 1 h 58 min
Overall bit rate : 2 886 kb/s
Movie name : = MediaClub = rip by Painter
Encoded date : UTC 2020-04-08 18:44:05
Writing application : v22.0.0 ('At The End Of The World') 32-bit
Writing library : libebml v1.3.5 + v1.4.8
Video #1
ID : 1
Format : AVC
Format/Info : Advanced Video Codec
Format profile : [email protected]
Format settings, CABAC : Yes
Format settings, ReFrames : 10 frames
Codec ID : V_MPEG4/ISO/AVC
Duration : 1 h 58 min
Bit rate : 2 500 kb/s
Width : 1 024 pixels
Height : 436 pixels
Display aspect ratio : 2.35:1
Frame rate mode : Constant
Frame rate : 23.976 FPS
Color space : YUV
Chroma subsampling : 4:2:0
Bit depth : 8 bits
Scan type : Progressive
Bits/(Pixel*Frame) : 0.234
Stream size : 2.07 GiB (87%)
Writing library : core 130 r2273 b3065e6
Encoding settings : cabac=1 / ref=10 / deblock=1:-3:-2 / analyse=0x3:0x133 / me=umh / subme=11 / psy=1 / psy_rd=1.00:0.20 / mixed_ref=1 / me_range=32 / chroma_me=1 / trellis=2 / 8x8dct=1 / cqm=0 / deadzone=21,11 / fast_pskip=0 / chroma_qp_offset=-3 / threads=6 / lookahead_threads=1 / sliced_threads=0 / nr=0 / decimate=0 / interlaced=0 / bluray_compat=0 / constrained_intra=0 / bframes=8 / b_pyramid=2 / b_adapt=2 / b_bias=0 / direct=3 / weightb=1 / open_gop=0 / weightp=2 / keyint=240 / keyint_min=23 / scenecut=40 / intra_refresh=0 / rc=2pass / mbtree=0 / bitrate=2500 / ratetol=1.0 / qcomp=0.60 / qpmin=0 / qpmax=69 / qpstep=4 / cplxblur=20.0 / qblur=0.5 / ip_ratio=1.40 / pb_ratio=1.30 / aq=1:1.00
Language : English
Default : Yes
Forced : No
Audio #2
ID : 2
Format : AC-3
Format/Info : Audio Coding 3
Mode extension : CM (complete main)
Format settings, Endianness : Big
Codec ID : A_AC3
Duration : 1 h 58 min
Bit rate mode : Constant
Bit rate : 192 kb/s
Channel(s) : 2 channels
Channel positions : Front: L R
Sampling rate : 48.0 kHz
Frame rate : 31.250 FPS (1536 spf)
Compression mode : Lossy
Stream size : 163 MiB (7%)
Title : sicilian clan 1969 AVC ukr dvo
Language : Ukrainian
Default : Yes
Forced : No
Audio #3
ID : 3
Format : AC-3
Format/Info : Audio Coding 3
Mode extension : CM (complete main)
Format settings, Endianness : Big
Codec ID : A_AC3
Duration : 1 h 58 min
Bit rate mode : Constant
Bit rate : 192 kb/s
Channel(s) : 1 channel
Channel positions : Front: C
Sampling rate : 48.0 kHz
Frame rate : 31.250 FPS (1536 spf)
Compression mode : Lossy
Stream size : 163 MiB (7%)
Title : sicilian clan 1969 AVC eng
Language : English
Default : No
Forced : No
Text #4
ID : 4
Format : UTF-8
Codec ID : S_TEXT/UTF8
Codec ID/Info : UTF-8 Plain Text
Duration : 1 h 56 min
Bit rate : 40 b/s
Count of elements : 1039
Stream size : 34.5 KiB (0%)
Language : English
Default : No
Forced : No
Величезна та найщиріша подяка
запис - Merdiff
постер - Тирік
зведення до - kryk-v.ya.

Джерело: &
Особиста оцінка: 10 - без зайвих вагань рекомендую всім! Класика Європейського гангстерського кіно!

Якщо хто має бажання викласти Remux, то можете взятися.


Срібний реліз (на рейтинг впливає 50% завантаженого)
 Трекер:    Зареєстрований   

Завантажити / скачати фільм українською



відео для новачків



 Зареєстрований:   2020-04-08 23:00
 Розмір:   2.39 GB 
 Оцінка фільму:   10/10 (Голосів: 7)
   
Інші релізи
bot 
робот


З нами з: 30.09.07
Востаннє: 26.05.05
Повідомлень: 25027

2020-04-08 22:01  
Тему перенесено з Фільми до форуму Анонси релізів


21jumpstreet

bot 
робот


З нами з: 30.09.07
Востаннє: 26.05.05
Повідомлень: 25027

2020-04-08 23:00  
Тему перенесено з Анонси релізів до форуму Фільми


21jumpstreet

Ваш часовий пояс: GMT + 2 Години

Нова тема   Відповісти