Восьмий клас / Eighth Grade (2018) 720p Eng | sub Ukr/Eng

Нові коментарі

Нова тема   Відповісти
Автор Повідомлення
Anonymous 







2020-04-08 14:30  
Восьмий клас / Eighth Grade (2018) 720p Eng | sub Ukr/Eng

Восьмий клас / Eighth Grade (2018) 720p Eng | sub Ukr/Eng
Оригінальний постер:

Восьмий клас / Eighth Grade (2018) 720p Eng | sub Ukr/Eng


Жанр: комедія, драма
Країна: США



Кінокомпанія: A24, IAC Films
Режисер: Бо Бернем / Bo Burnham
Актори: Елсі Фішер / Elsie Fisher, Джош Гамільтон / Josh Hamilton, Емілі Робінсон / Emily Robinson, Джейк Раян / Jake Ryan, Люк Праел / Luke Prael та інші.

Сюжет:
Кейла Дей — сором'язлива восьмикласниця, яка намагається знайти своє місце в житті. Ні однолітки, ні навіть батько не підтримують дівчинку, і вона вирішує почати публікувати відео в інтернеті. Тільки в цих роликах Кейла може розповісти про те, що її по-справжньому хвилює.
Офіційний трейлер:


Рейтинг MPAA: R - особам до 17 років обов'язкова присутність батьків або дорослого опікуна
Вікова категорія: 16+

Тривалість: 01:33:39
Якість: 720p

Відео:
кодек:
розмір кадру: 1280x690
бітрейт: 5632 кб/с

Аудіо:
мова: англійська
переклад: оригінал
кодек: 5.1
бітрейт: 448 кб/с

Субтитри # 1:
мова: українська
тип: програмні (м'які)
формат: *.srt
перекладач: Володимир Фатун

Субтитри # 2-4:
мова: англійська (повні, SDH, SDH кольорові)
тип: програмні (м'які)
формат: *.srt

Збережено оригінальні розділи, як на Blu-ray
Info
Код:

Complete name               : Eighth Grade (2018) [Eng sub.Ukr,Eng] 720p [Hurtom].
Format                      :
Format version              : Version 4
File size                   : 3.98 GiB
Duration                    : 1 h 33 min
Overall bit rate            : 6 083 kb/s
Movie name                  : Восьмий клас / Eighth Grade (2018) [Eng sub.Ukr,Eng] 720p [Hurtom]
Encoded date                : UTC 2020-04-08 18:22:14
Writing application         : v45.0.0 ('Heaven in Pennies') 64-bit
Writing library             : libebml v1.3.10 + v1.5.2
Cover                       : Yes
Attachments                 : cover.jpg

Video
ID                          : 1
Format                      : AVC
Format/Info                 : Advanced Video Codec
Format profile              : [email protected]
Format settings             : CABAC / 9 Ref Frames
Format settings, CABAC      : Yes
Format settings, Reference  : 9 frames
Codec ID                    : V_MPEG4/ISO/AVC
Duration                    : 1 h 33 min
Bit rate                    : 5 632 kb/s
Width                       : 1 280 pixels
Height                      : 690 pixels
Display aspect ratio        : 1.85:1
Frame rate mode             : Constant
Frame rate                  : 23.976 (24000/1001) FPS
Color space                 : YUV
Chroma subsampling          : 4:2:0
Bit depth                   : 8 bits
Scan type                   : Progressive
Bits/(Pixel*Frame)          : 0.266
Stream size                 : 3.68 GiB (93%)
Title                       : Восьмий клас / Eighth Grade (2018) 720p
Writing library             : core 157 r2935 545de2f
Encoding settings           : cabac=1 / ref=9 / deblock=1:-3:-3 / analyse=0x3:0x113 / me=umh / subme=11 / psy=1 / psy_rd=1.00:0.00 / mixed_ref=1 / me_range=32 / chroma_me=1 / trellis=2 / 8x8dct=1 / cqm=0 / deadzone=21,11 / fast_pskip=1 / chroma_qp_offset=-4 / threads=6 / lookahead_threads=1 / sliced_threads=0 / nr=0 / decimate=1 / interlaced=0 / bluray_compat=0 / constrained_intra=0 / bframes=11 / b_pyramid=2 / b_adapt=2 / b_bias=0 / direct=1 / weightb=1 / open_gop=0 / weightp=2 / keyint=240 / keyint_min=23 / scenecut=40 / intra_refresh=0 / rc_lookahead=60 / rc=2pass / mbtree=1 / bitrate=5632 / ratetol=1.0 / qcomp=0.60 / qpmin=0 / qpmax=69 / qpstep=4 / cplxblur=20.0 / qblur=0.5 / vbv_maxrate=50000 / vbv_bufsize=62500 / nal_hrd=none / filler=0 / ip_ratio=1.40 / aq=1:0.90
Language                    : English
Default                     : Yes
Forced                      : No

Audio
ID                          : 2
Format                      : AC-3
Format/Info                 : Audio Coding 3
Commercial name             : Dolby Digital
Codec ID                    : A_AC3
Duration                    : 1 h 33 min
Bit rate mode               : Constant
Bit rate                    : 448 kb/s
Channel(s)                  : 6 channels
Channel layout              : L R C LFE Ls Rs
Sampling rate               : 48.0 kHz
Frame rate                  : 31.250 FPS (1536 SPF)
Compression mode            : Lossy
Stream size                 : 300 MiB (7%)
Title                       : Original, 5.1 448 Kbps
Language                    : English
Service kind                : Complete Main
Default                     : Yes
Forced                      : No

Text #1
ID                          : 3
Format                      : UTF-8
Codec ID                    : S_TEXT/UTF8
Codec ID/Info               : UTF-8 Plain Text
Duration                    : 1 h 33 min
Bit rate                    : 87 b/s
Count of elements           : 1201
Stream size                 : 59.6 KiB (0%)
Title                       : Ukr Full [iTunes]
Language                    : Ukrainian
Default                     : Yes
Forced                      : Yes

Text #2
ID                          : 4
Format                      : UTF-8
Codec ID                    : S_TEXT/UTF8
Codec ID/Info               : UTF-8 Plain Text
Duration                    : 1 h 30 min
Bit rate                    : 67 b/s
Count of elements           : 1451
Stream size                 : 44.3 KiB (0%)
Title                       : Eng Full
Language                    : English
Default                     : No
Forced                      : No

Text #3
ID                          : 5
Format                      : UTF-8
Codec ID                    : S_TEXT/UTF8
Codec ID/Info               : UTF-8 Plain Text
Duration                    : 1 h 30 min
Bit rate                    : 88 b/s
Count of elements           : 1578
Stream size                 : 58.7 KiB (0%)
Title                       : Eng SDH
Language                    : English
Default                     : No
Forced                      : No

Text #4
ID                          : 6
Format                      : UTF-8
Codec ID                    : S_TEXT/UTF8
Codec ID/Info               : UTF-8 Plain Text
Duration                    : 1 h 30 min
Bit rate                    : 100 b/s
Count of elements           : 1578
Stream size                 : 66.5 KiB (0%)
Title                       : Eng SDH-Colored
Language                    : English
Default                     : No
Forced                      : No

Menu
00:00:00.000                : en:(01)00:00:00:000
00:05:44.635                : en:(02)00:05:44:635
00:11:00.534                : en:(03)00:11:00:534
00:16:20.854                : en:(04)00:16:20:854
00:19:55.986                : en:(05)00:19:55:986
00:27:18.094                : en:(06)00:27:18:094
00:33:08.444                : en:(07)00:33:08:444
00:39:54.808                : en:(08)00:39:54:808
00:43:08.877                : en:(09)00:43:08:877
00:49:21.374                : en:(10)00:49:21:374
00:54:41.152                : en:(11)00:54:41:152
01:01:44.700                : en:(12)01:01:44:700
01:09:07.393                : en:(13)01:09:07:393
01:13:05.881                : en:(14)01:13:05:881
01:15:39.076                : en:(15)01:15:39:076
01:22:23.188                : en:(16)01:22:23:188
01:33:38.404                : en:(17)01:33:38:404



Джерело: &


 Трекер:    Зареєстрований   

Завантажити / скачати фільм українською



відео для новачків



 Зареєстрований:   2020-04-08 20:51
 Розмір:   3.98 GB 
 Оцінка фільму:   9.1/10 (Голосів: 10)
 ЗАЛИШАЙТЕСЬ ЯКОМОГА ДОВШЕ НА РОЗДАЧІ! ЗАВАНТАЖИВ САМ - ДАЙ ЗАВАНТАЖИТИ ІНШИМ!
   
Інші релізи
taksist 
VIP


З нами з: 10.12.12
Востаннє: 14.10.20
Повідомлень: 552

2020-04-09 12:56  
цікаво буде подивитися за кар'єрою Елсі Фішер.
Іван Антонович 
Новенький


З нами з: 27.04.10
Востаннє: 29.11.20
Повідомлень: 10

2020-05-05 23:22  
Нарешті справжні підлітки! Я таких бачу щодня у дворі, біля школи. Фільм дуже реалістичний, тому не підійде як "приємне видиво для відпочинку". Нема вульгарно яскравих подій і почуттів, та й нарешті хтось показав, як вони (ми) всі залипають у смарфони. Глибоко й реалістично змальовані стосунки дочки з батьком.
Anonymous 







2020-10-28 21:24  
Незабаром реліз буде оновлено українським озвученням.
kostyatest 
Свій


З нами з: 01.02.18
Востаннє: 29.11.20
Повідомлень: 64

2020-11-14 11:18  
цікаво
проте нудно

Ваш часовий пояс: GMT + 2 Години

Нова тема   Відповісти