Росселла / Rossella (Сезон 1) (2011) AVC

Нові коментарі

Нова тема   Відповісти
Автор Повідомлення
sergiyko.5 
VIP


З нами з: 25.02.16
Востаннє: 30.09.20
Повідомлень: 3484

2020-04-08 12:14  


Росселла / Rossella (Сезон 1) (2011) AVC

Жанр: драма
Країна: Італія
Режисер: Гіанні Лепре
Актори: Тоні Бертореллі, Даніло Бругія, Франческа Каваллін, Джованні Гуіделлі, Анна Мелато, Габріелла Пессіон, Тереза Сапонанджело, Фабіо Сартор, Джузеппе Зено

Сюжет:
Події розгортаються в Генуї в кінці XIX - на початку XX століть. Головна героїня - Росселла Андре, красива молода дівчина з багатої сім'ї, що належить до вищого суспільства Генуї. Романтична, бунтівна, повна цікавості до світу, вона живе зі своїм батьком П'єтро, власником машинобудівного заводу, і сестрою Паоліні. Мати, Олімпія, померла при загадкових обставинах, коли дівчина була ще дитиною.

Росселла таємно закохується в амбіційного, пристрасного і бідного журналіста Джуліано Саллустіо. І коли спадкоємець сім'ї німецьких промисловців попросив її руки, Росселла відмовляється, розкриває свою любов до Джуліано, заявляє про свою свободу, сваритися з батьком. Нарешті вирішує втекти з коханою людиною. Але чи дійсно Джуліано та людина, яким вона його вважає, або Росселла, через занадто велику любов і свою наївність, помиляеться з приводу його істинної натури?




Тривалість: 1 серія: 51:00 (цілком серій: 14 з 14)
Якість: AVC

Відео: кодек: розмір кадру: 1024 х 576 бітрейт: 3000 кб/с
Аудіо: мова: українська переклад: багатоголосий закадровий кодек: 2.0 бітрейт: 128 кб/с
Озвучення:
Перелік серій
01 серія
02 серія
03 серія
04 серія
05 серія
06 серія
07 серія
08 серія
09 серія
10 серія
11 серія
12 серія
13 серія
14 серія
Про файл:
General
Unique ID : 188304247970983339480760611796567695824 (0x8DAA14382E7F37A8A9072E25DAC3A1D0)
Complete name : D:\Documents\Torrents\Rizne\Rossella S01 \Rossella.S01E02..
Format :
Format version : Version 4
File size : 1.22 GiB
Duration : 52 min 19 s
Overall bit rate : 3 325 kb/s
Movie name : Rossella S01 by sergiyko
Encoded date : UTC 2020-04-08 08:58:18
Writing application : v44.0.0 ('Domino') 64-bit
Writing library : libebml v1.3.10 + v1.5.2

Video
ID : 1
Format : AVC
Format/Info : Advanced Video Codec
Format profile : [email protected]
Format settings : CABAC / 1 Ref Frames
Format settings, CABAC : Yes
Format settings, Reference : 1 frame
Codec ID : V_MPEG4/ISO/AVC
Duration : 52 min 19 s
Bit rate mode : Constant
Bit rate : 3 200 kb/s
Width : 1 024 pixels
Height : 576 pixels
Display aspect ratio : 16:9
Frame rate mode : Constant
Frame rate : 25.000 FPS
Color space : YUV
Chroma subsampling : 4:2:0
Bit depth : 8 bits
Scan type : Progressive
Bits/(Pixel*Frame) : 0.217
Stream size : 1.17 GiB (96%)
Language : Italian
Default : Yes
Forced : No

Audio
ID : 2
Format : LC
Format/Info : Advanced Audio Codec Low Complexity
Codec ID : A_AAC-2
Duration : 52 min 19 s
Bit rate : 125 kb/s
Channel(s) : 2 channels
Channel layout : L R
Sampling rate : 48.0 kHz
Frame rate : 46.875 FPS (1024 SPF)
Compression mode : Lossy
Stream size : 46.9 MiB (4%)
Language : Ukrainian
Default : Yes
Forced : No
Скріншоти:


Запис: sergiyko


Бронзовий реліз (на рейтинг впливає 75% завантаженого)
 Трекер:    Зареєстрований   

Завантажити / скачати серіал українською



відео для новачків



 Зареєстрований:   2020-07-09 10:04
 Розмір:   16.16 GB 
 Оцінка серіалу:   10/10 (Голосів: 2)
   
leicheman 
Відео Гуртом - фільмокрай
Відео Гуртом - фільмокрай


З нами з: 03.07.14
Востаннє: 29.09.20
Повідомлень: 5430

2020-04-30 23:32  
по юа культура йде, можливо покажуть першу серію і інші
sergiyko.5 
VIP


З нами з: 25.02.16
Востаннє: 30.09.20
Повідомлень: 3484

2020-07-09 10:05  
Додав 1,11-14 серії. Сезон повний. Приємного перегляду!
Ваш часовий пояс: GMT + 2 Години

Нова тема   Відповісти