Звук тиші (Звук мовчання) / The Sound of Silence (2019) 1080p Eng | sub Ukr/Eng

Нові коментарі

Нова тема   Відповісти
Автор Повідомлення
Anonymous 







2020-04-08 11:05  
Звук тиші / The Sound of Silence (2019) 1080p Eng | sub Ukr/Eng

Звук тиші (Звук мовчання) / The Sound of Silence (2019) 1080p Eng | sub Ukr/Eng
Оригінальні постери:





Жанр: драма
Країна: США



Кінокомпанія: Anonymous Content, Feracious Entertainment, Group Theory, Jhumka Films, Keshet Studios, Valparaiso Pictures, Washington Square Films
Режисер: Майкл Тибурський / Michael Tyburski
Актори: Пітер Сарсґаард / Peter Sarsgaard, Рашида Джонс / Rashida Jones, Тоні Револорі / Tony Revolori, Остін Пендлтон / Austin Pendleton, Брюс Олтмен / Bruce Altman, Тіна Бенко / Tina Benko, Теодор Булукос / Theodore Bouloukos, Едіт Діліп / Adit Dileep, Перрін Драмм / Perrin Drumm, Елісон Фрайзер / Alison Fraser та інші.

Сюжет:
Головний герой Пітер Лючіан (Пітер Сарсґаард) має, напевно, найбільш незвичайну професію у світі. Він є настроювачем… будинків: фахівець може усунути звукові рельєфи в приміщенні, що викликають сумний або неспокійний настрій. Якось його черговою клієнткою стає жінка на ім'я Еллен, що страждає від хронічної втоми.
Офіційний трейлер:


Вікова категорія: 16+

Тривалість: 01:27:24
Якість: 1080p [Amazon]

Відео:
кодек:
розмір кадру: 1920x960
бітрейт: 6216 кб/с

Аудіо:
мова: англійська
переклад: оригінал
кодек: E- 5.1
бітрейт: 640 кб/с

Субтитри # 1:
мова: українська
тип: програмні (м'які)
формат: *.srt
перекладач: Володимир Фатун

Субтитри # 2-3:
мова: англійська (повні, SDH)
тип: програмні (м'які)
формат: *.srt
Info
Код:

Complete name               : The Sound of Silence (2019) [Eng sub.Ukr,Eng] 1080p AMZN [Hurtom].
Format                      :
Format version              : Version 4
File size                   : 4.19 GiB
Duration                    : 1 h 27 min
Overall bit rate            : 6 859 kb/s
Movie name                  : Звук тиші / The Sound of Silence (2019) [Eng sub.Ukr,Eng] 1080p AMZN [Hurtom]
Encoded date                : UTC 2020-04-08 09:38:30
Writing application         : v45.0.0 ('Heaven in Pennies') 64-bit
Writing library             : libebml v1.3.10 + v1.5.2
Cover                       : Yes
Attachments                 : cover.jpg

Video
ID                          : 1
Format                      : AVC
Format/Info                 : Advanced Video Codec
Format profile              : [email protected]
Format settings             : CABAC / 4 Ref Frames
Format settings, CABAC      : Yes
Format settings, Reference  : 4 frames
Codec ID                    : V_MPEG4/ISO/AVC
Duration                    : 1 h 27 min
Bit rate mode               : Constant
Bit rate                    : 6 216 kb/s
Nominal bit rate            : 10 000 kb/s
Width                       : 1 920 pixels
Height                      : 960 pixels
Display aspect ratio        : 2.000
Frame rate mode             : Constant
Frame rate                  : 23.976 (24000/1001) FPS
Color space                 : YUV
Chroma subsampling          : 4:2:0
Bit depth                   : 8 bits
Scan type                   : Progressive
Bits/(Pixel*Frame)          : 0.141
Stream size                 : 3.80 GiB (91%)
Title                       : Звук тиші / The Sound of Silence (2019) 1080p [Amazon, NTG]
Language                    : English
Default                     : Yes
Forced                      : No
Color range                 : Limited
Color primaries             : BT.709
Transfer characteristics    : BT.709
Matrix coefficients         : BT.709

Audio
ID                          : 2
Format                      : E-AC-3
Format/Info                 : Enhanced AC-3
Commercial name             : Dolby Digital Plus
Codec ID                    : A_EAC3
Duration                    : 1 h 27 min
Bit rate mode               : Constant
Bit rate                    : 640 kb/s
Channel(s)                  : 6 channels
Channel layout              : L R C LFE Ls Rs
Sampling rate               : 48.0 kHz
Frame rate                  : 31.250 FPS (1536 SPF)
Compression mode            : Lossy
Stream size                 : 400 MiB (9%)
Title                       : Original, E- 5.1 640 Kbps
Language                    : English
Service kind                : Complete Main
Default                     : Yes
Forced                      : No

Text #1
ID                          : 3
Format                      : UTF-8
Codec ID                    : S_TEXT/UTF8
Codec ID/Info               : UTF-8 Plain Text
Duration                    : 1 h 26 min
Bit rate                    : 71 b/s
Count of elements           : 819
Stream size                 : 45.2 KiB (0%)
Title                       : Ukr Full [iTunes]
Language                    : Ukrainian
Default                     : Yes
Forced                      : Yes

Text #2
ID                          : 4
Format                      : UTF-8
Codec ID                    : S_TEXT/UTF8
Codec ID/Info               : UTF-8 Plain Text
Duration                    : 1 h 21 min
Bit rate                    : 48 b/s
Count of elements           : 930
Stream size                 : 28.7 KiB (0%)
Title                       : Eng Full
Language                    : English
Default                     : No
Forced                      : No

Text #3
ID                          : 5
Format                      : UTF-8
Codec ID                    : S_TEXT/UTF8
Codec ID/Info               : UTF-8 Plain Text
Duration                    : 1 h 26 min
Bit rate                    : 49 b/s
Count of elements           : 1123
Stream size                 : 31.7 KiB (0%)
Title                       : Eng SDH
Language                    : English
Default                     : No
Forced                      : No



Джерело: &


 Трекер:    Зареєстрований   

Завантажити / скачати фільм українською



відео для новачків



 Зареєстрований:   2020-04-08 12:50
 Розмір:   4.19 GB 
 Оцінка фільму:   9.3/10 (Голосів: 6)
 ЗАЛИШАЙТЕСЬ ЯКОМОГА ДОВШЕ НА РОЗДАЧІ! ЗАВАНТАЖИВ САМ - ДАЙ ЗАВАНТАЖИТИ ІНШИМ!
   
Інші релізи
Ваш часовий пояс: GMT + 2 Години

Нова тема   Відповісти