Ритм-секція / The Rhythm Section (2020) 1080p Eng | sub Ukr

Нові коментарі

Нова тема   Відповісти
Автор Повідомлення
killer2015 
Свій


З нами з: 30.01.15
Востаннє: 20.09.20
Повідомлень: 112

2020-04-08 11:43  
Ритм-секція / The Rhythm Section (2020) 1080p Eng | sub Ukr

Ритм-секція / The Rhythm Section (2020) 1080p Eng | sub Ukr


Жанр: бойовик, детектив, трилер
Країна: Велика Британія



Кінокомпанія: Paramount Pictures, IM Global, Babieka
Режисер: Рід Морано
Актори: Блейк Лайвлі, Джуд Лоу, Стерлінг К. Браун, Макс Казелла, Річард Брейк, Раза Джаффрі, Деніел Мейс

Сюжет:
Життя Стефані Патрік було сповнене любові та прекрасних моментів, поки не сталася одна страшна подія. В один день вся її сім'я загинула в жахливій авіакатастрофі, після чого жінка втратила будь-який сенс в житті. І найгірше те, що це не була якась несправність у літаку або помилка пілотів – ні, Стефані абсолютно точно знає, що це був вибух бомби. І підривник зовсім не сидить у тюрмі – він на волі. У Стефані тепер є лише одна мета в житті – покарати винних у смерті її рідних. Жінка, якій нічого втрачати, ні перед чим не зупиниться для досягнення своєї мети.


Тривалість: 01:49:37
Якість:
Відео:
кодек:
розмір кадру: 1920 х 1080
бітрейт: 4665 кб/с

Аудіо:
мова: англійська
переклад: оригінал
кодек: 5.1
бітрейт: 384 кб/с

Субтитри: (окремим файлом)
мова: українська (Офіційні)
тип: програмні (м'які)
формат: *.srt
МедіаІнфо
General
Unique ID : 333808539634780272826537821304810131544 (0xFB212FABF2E129C02D1901F910805058)
Complete name : G:\Фільми\The Rhythm Section.2020.1080p..H264.-EVO[EtHD]\The Rhythm Section.2020.1080p..H264.-EVO[EtHD].
Format :
Format version : Version 4
File size : 3.87 GiB
Duration : 1 h 49 min
Overall bit rate : 5 051 kb/s
Encoded date : UTC 2020-04-06 22:27:24
Writing application : v25.0.0 ('Prog Noir') 32-bit
Writing library : libebml v1.3.6 + v1.4.9

Video
ID : 1
Format : AVC
Format/Info : Advanced Video Codec
Format profile : [email protected]
Format settings : CABAC / 2 Ref Frames
Format settings, CABAC : Yes
Format settings, Reference frames : 2 frames
Codec ID : V_MPEG4/ISO/AVC
Duration : 1 h 49 min
Bit rate : 4 665 kb/s
Width : 1 920 pixels
Height : 1 080 pixels
Display aspect ratio : 16:9
Frame rate mode : Constant
Frame rate : 23.976 (24000/1001) FPS
Color space : YUV
Chroma subsampling : 4:2:0
Bit depth : 8 bits
Scan type : Progressive
Bits/(Pixel*Frame) : 0.094
Stream size : 3.57 GiB (92%)
Writing library : core 155 r2901 7d0ff22
Default : Yes
Forced : No
Color range : Limited
Color primaries : BT.709
Transfer characteristics : BT.709
Matrix coefficients : BT.709

Audio
ID : 2
Format : AC-3
Format/Info : Audio Coding 3
Commercial name : Dolby Digital
Codec ID : A_AC3
Duration : 1 h 49 min
Bit rate mode : Constant
Bit rate : 384 kb/s
Channel(s) : 6 channels
Channel layout : L R C LFE Ls Rs
Sampling rate : 48.0 kHz
Frame rate : 31.250 FPS (1536 SPF)
Compression mode : Lossy
Stream size : 301 MiB (8%)
Language : English
Service kind : Complete Main
Default : Yes
Forced : No
Скріншоти




Джерело:


 Трекер:    Зареєстрований   

Завантажити / скачати фільм українською



відео для новачків



 Зареєстрований:   2020-04-08 11:43
 Розмір:   3.87 GB 
 Оцінка фільму:   10/10 (Голосів: 7)
   
igor911 
Модератор відео


З нами з: 18.01.08
Востаннє: 20.09.20
Повідомлень: 14994

2020-04-08 14:07  
killer2015 написано:
Життя жінки на ім'я Стефані Патрік була сповнена любові та прекрасних моментів, поки не сталася одна страшна подія. В один день вся її сім'я померла в жахливій авіакатастрофі, після чого жінка втратила всякий стимул до існування. І найгірше те, що це не була якась несправність у літаку або помилка пілотів – ні, Стефані абсолютно точно знає, що це був вибух бомби. І підривник зовсім не сидить у тюрмі – він на волі. У Стефані тепер є тільки одна мета в житті – покарати винних у смерті її рідних. Жінка, якій нічого втрачати, ні перед чим не зупиниться для досягнення своєї мети.

Замініть цей гуглопереклад відредагованим варіантом:
"Життя Стефані Патрік було сповнене любові та прекрасних моментів, поки не сталася одна страшна подія. В один день вся її сім'я загинула в жахливій авіакатастрофі, після чого жінка втратила будь-який сенс в житті. І найгірше те, що це не була якась несправність у літаку або помилка пілотів – ні, Стефані абсолютно точно знає, що це був вибух бомби. І підривник зовсім не сидить у тюрмі – він на волі. У Стефані тепер є лише одна мета в житті – покарати винних у смерті її рідних. Жінка, якій нічого втрачати, ні перед чим не зупиниться для досягнення своєї мети."

don pedro 
Попереджень: 1
Попереджень: 1 


З нами з: 29.06.11
Востаннє: 18.09.20
Повідомлень: 17718

2020-04-08 17:49  
killer2015
Станьте, будь-ласка, на роздачу.

DieSage 
Новенький


З нами з: 19.02.11
Востаннє: 19.09.20
Повідомлень: 8

2020-04-08 18:23  
Привіт, може хтось стати на роздачу?
killer2015 
Свій


З нами з: 30.01.15
Востаннє: 20.09.20
Повідомлень: 112

2020-04-08 18:44  
igor911

Замінив. Дякую. Я не звернув уваги на опис) Взяв з джерела https://kino-teatr.ua/uk/film/rhythm-section-50094.phtml

zhman 
VIP


З нами з: 21.12.14
Востаннє: 18.09.20
Повідомлень: 275

2020-04-08 20:09  
якою ж страшною тут зробили красуню Блейк! Не знаю чи варто дивитися...
don pedro 
Попереджень: 1
Попереджень: 1 


З нами з: 29.06.11
Востаннє: 18.09.20
Повідомлень: 17718

2020-04-09 04:17  
zhman написано:
якою ж страшною тут зробили красуню Блейк

Як на матір трьох дітей віком тридцяти двох років, яка грає героїнову повію/спрацьовану найману вбивцю, то Лавлі має ще непоганий вигляд. Не все ж у "Простій послузі" чи "Світському житті" грати.

Загалом, непоганий фільм про жіночу помсту з явним натяком на продовження. Рейтинu IMDb дещо занижений.

zhman 
VIP


З нами з: 21.12.14
Востаннє: 18.09.20
Повідомлень: 275

2020-04-10 00:31  
don pedro написано:
Не все ж у "Простій послузі" чи "Світському житті" грати.

то зрозуміло. В житті вона добре виглядає, навіть без мейк-апу. Але тут, на скрінах якось жахаюче.

don pedro 
Попереджень: 1
Попереджень: 1 


З нами з: 29.06.11
Востаннє: 18.09.20
Повідомлень: 17718

2020-04-10 00:33  
zhman
Це така вона у першій половині фільму. У другій частині вона буває красивою.

+380954897458 
VIP


З нами з: 02.06.17
Востаннє: 18.09.20
Повідомлень: 942

2020-09-15 18:48  
Ще один дуже симпатичний жіночий бойовик. Американка Лайвлі чудово відтворила британський акцент. Може й краще що фільму нема українською мовою: менше "тонких поціновувачів" обіллє брудом непогане кіно.
ведробрільянтів 
Новенький


З нами з: 29.10.19
Востаннє: 19.09.20
Повідомлень: 7

2020-09-16 08:47  
Чомусь згадав рейс MH17.
Ваш часовий пояс: GMT + 2 Години

Нова тема   Відповісти