Бінго-Бонго / Bingo Bongo (1982) 1080p H.265 Ukr/Ita

Нові коментарі

Нова тема   Відповісти
Автор Повідомлення
Anonymous 







2020-04-08 11:18  
Бінго-Бонго / Bingo Bongo (1982) 1080p H.265 Ukr/Ita

Бінго-Бонго / Bingo Bongo (1982) 1080p H.265 Ukr/Ita


Жанр: комедія
Країна: Італія, Німеччина (ФРН)
Кінокомпанія: Intercapital
Режисер: Паскуале Феста Кампаніле
Актори: Адріано Челентано, Кароль Буке, Феліче Андреазі, Енцо Робутті, Вальтер Д'Аморе, Роберто Мареллі, Альфіо Патані, Елізабет Кобб, Мауріціо табанити, Маріо Барілла

Сюжет:
Людина-мавпа, знайдений десь у джунглях Конго, перевезений в Мілан і названий Бінго-Бонго. Одна лише Лаура, жінка-антрополог, вірить в людські якості цього неприборканого напівтварини, і їх прихильність один до одного навіть переростає в любов.

Тривалість: 01:46:22
Якість:

Відео:
кодек: H.265 (HEVC)
розмір кадру: 1800 x 1080
бітрейт: 11 001 кб/с
бітова глибина: 10 біт

Увага! Перед завантаженням переконайтесь, що ваш пристрій відтворення (та/або ПЗ) підтримує H.265 (HEVC)

Аудіо # 1:
мова: українська
переклад: двоголосий закадровий
кодек: AC-3 2.0
бітрейт: 192 кб/с

Аудіо # 2:
мова: італійська
переклад: оригінал
кодек: 2.0
бітрейт: 1510 кб/с


Info
Код:
General
Unique ID                                : 172971946236231901880845052484420569561 (0x82212F615F3FACA6931A599A765309D9)
Complete name                            : Bingo Bongo (1982) 1080p H.265 [UKR_ITA] [Hurtom].
Format                                   :
Format version                           : Version 4
File size                                : 9.44 GiB
Duration                                 : 1 h 46 min
Overall bit rate                         : 12.7 Mb/s
Movie name                               : Бінго-Бонго / Bingo Bongo (1982)
Encoded date                             : UTC 2020-04-08 07:48:08
Writing application                      : v20.0.0 ('I Am The Sun') 64-bit
Writing library                          : libebml v1.3.5 + v1.4.8
Cover                                    : Yes
Attachments                              : Cover.png

Video
ID                                       : 1
Format                                   : HEVC
Format/Info                              : High Efficiency Video Coding
Format profile                           : Main [email protected]@High
Codec ID                                 : V_MPEGH/ISO/HEVC
Duration                                 : 1 h 46 min
Bit rate                                 : 11.0 Mb/s
Width                                    : 1 800 pixels
Height                                   : 1 080 pixels
Display aspect ratio                     : 5:3
Frame rate mode                          : Constant
Frame rate                               : 23.976 (23976/1000) FPS
Original frame rate                      : 23.976 (24000/1001) FPS
Color space                              : YUV
Chroma subsampling                       : 4:2:0
Bit depth                                : 10 bits
Bits/(Pixel*Frame)                       : 0.236
Stream size                              : 8.17 GiB (87%)
Title                                    : Бінго-Бонго / Bingo Bongo (1982)
Writing library                          : x265 3.3+1-g554c887ac:[Windows][MSVC 1924][64 bit] 10bit
Encoding settings                        : cpuid=1111039 / frame-threads=3 / numa-pools=12 / wpp / no-pmode / no-pme / no-psnr / no-ssim / log-level=2 / input-csp=1 / input-res=1800x1080 / interlace=0 / total-frames=153035 / level-idc=41 / high-tier=1 / uhd-bd=0 / ref=5 / no-allow-non-conformance / no-repeat-headers / annexb / no-aud / no-hrd / info / hash=0 / no-temporal-layers / open-gop / min-keyint=23 / keyint=240 / gop-lookahead=0 / bframes=8 / b-adapt=2 / b-pyramid / bframe-bias=0 / rc-lookahead=60 / lookahead-slices=4 / scenecut=40 / hist-scenecut=0 / radl=0 / no-splice / no-intra-refresh / ctu=32 / min-cu-size=8 / rect / amp / max-tu-size=32 / tu-inter-depth=4 / tu-intra-depth=4 / limit-tu=1 / rdoq-level=2 / dynamic-rd=0.00 / no-ssim-rd / signhide / no-tskip / nr-intra=0 / nr-inter=0 / no-constrained-intra / no-strong-intra-smoothing / max-merge=4 / limit-refs=2 / limit-modes / me=3 / subme=7 / merange=57 / temporal-mvp / no-frame-dup / no-hme / weightp / weightb / no-analyze-src-pics / deblock=-3:-3 / no-sao / no-sao-non-deblock / rd=6 / selective-sao=0 / no-early-skip / no-rskip / no-fast-intra / no-tskip-fast / no-cu-lossless / no-b-intra / no-splitrd-skip / rdpenalty=0 / psy-rd=2.00 / psy-rdoq=1.00 / no-rd-refine / no-lossless / cbqpoffs=0 / crqpoffs=0 / rc=abr / bitrate=11000 / qcomp=0.65 / qpstep=4 / stats-write=0 / stats-read=2 / cplxblur=20.0 / qblur=0.5 / vbv-maxrate=50000 / vbv-bufsize=50000 / vbv-init=0.9 / ipratio=1.40 / pbratio=1.30 / aq-mode=1 / aq-strength=0.80 / no-cutree / zone-count=0 / no-strict-cbr / qg-size=32 / no-rc-grain / qpmax=69 / qpmin=0 / no-const-vbv / sar=1 / overscan=0 / videoformat=5 / range=0 / colorprim=1 / transfer=1 / colormatrix=1 / chromaloc=0 / display-window=0 / cll=0,0 / min-luma=0 / max-luma=1023 / log2-max-poc-lsb=8 / vui-timing-info / vui-hrd-info / slices=1 / no-opt-qp-pps / no-opt-ref-list-length-pps / no-multi-pass-opt-rps / scenecut-bias=0.05 / hist-threshold=0.01 / no-opt-cu-delta-qp / no-aq-motion / no-hdr10 / no-hdr10-opt / no-dhdr10-opt / no-idr-recovery-sei / analysis-reuse-level=0 / analysis-save-reuse-level=0 / analysis-load-reuse-level=0 / scale-factor=0 / refine-intra=0 / refine-inter=0 / refine-mv=1 / refine-ctu-distortion=0 / no-limit-sao / ctu-info=0 / no-lowpass-dct / refine-analysis-type=0 / copy-pic=1 / max-ausize-factor=1.0 / no-dynamic-refine / no-single-sei / no-hevc-aq / no-svt / no-field / qp-adaptation-range=1.00 / no-scenecut-aware-qpconformance-window-offsets / right=0 / bottom=0
Language                                 : Italian
Default                                  : Yes
Forced                                   : No
Color range                              : Limited
Color primaries                          : BT.709
Transfer characteristics                 : BT.709
Matrix coefficients                      : BT.709

Audio #1
ID                                       : 2
Format                                   : AC-3
Format/Info                              : Audio Coding 3
Commercial name                          : Dolby Digital
Codec ID                                 : A_AC3
Duration                                 : 1 h 46 min
Bit rate mode                            : Constant
Bit rate                                 : 192 kb/s
Channel(s)                               : 2 channels
Channel layout                           : L R
Sampling rate                            : 48.0 kHz
Frame rate                               : 31.250 FPS (1536 SPF)
Compression mode                         : Lossy
Stream size                              : 146 MiB (2%)
Title                                    : / 2.0 Ch / 192 kbps / ДЗ / Inter
Language                                 : Ukrainian
Service kind                             : Complete Main
Default                                  : Yes
Forced                                   : Yes

Audio #2
ID                                       : 3
Format                                   :
Format/Info                              : Digital Theater Systems
Codec ID                                 : A_DTS
Duration                                 : 1 h 46 min
Bit rate mode                            : Constant
Bit rate                                 : 1 509 kb/s
Channel(s)                               : 2 channels
Channel layout                           : L R
Sampling rate                            : 48.0 kHz
Frame rate                               : 93.750 FPS (512 SPF)
Bit depth                                : 16 bits
Compression mode                         : Lossy
Stream size                              : 1.12 GiB (12%)
Title                                    : / 2.0 Ch / 1509 kbps / Original
Language                                 : Italian
Default                                  : No
Forced                                   : No

Menu
00:00:00.000                             : en:Chapter 1
00:09:38.202                             : en:Chapter 2
00:13:36.732                             : en:Chapter 3
00:19:15.696                             : en:Chapter 4
00:25:24.105                             : en:Chapter 5
00:31:43.526                             : en:Chapter 6
00:41:28.944                             : en:Chapter 7
00:50:11.591                             : en:Chapter 8
00:53:42.594                             : en:Chapter 9
00:57:01.960                             : en:Chapter 10
01:00:47.268                             : en:Chapter 11
01:04:36.372                             : en:Chapter 12
01:14:05.149                             : en:Chapter 13
01:24:46.790                             : en:Chapter 14
01:34:46.555                             : en:Chapter 15
01:44:36.144                             : en:Chapter 16
01:46:21.875                             : en:Chapter 17
Світлини




Джерело: &
Особиста оцінка: 10 - без зайвих вагань рекомендую всім!


Срібний реліз (на рейтинг впливає 50% завантаженого)
 Трекер:    Зареєстрований   

Завантажити / скачати фільм українською



відео для новачків



 Зареєстрований:   2020-04-08 11:18
 Розмір:   9.44 GB 
 Оцінка фільму:   8.5/10 (Голосів: 6)
   
Інші релізи
   Бінго-Бонго / Bingo Bongo (1982) sokeel  3 / 0   1.45 GB   2018-12-02 16:48 
   Бінго-Бонго / Bingo Bongo (1982) AVC Ukr/Ita drop_plz  4 / 0   2.89 GB   2018-12-02 00:20 
Ваш часовий пояс: GMT + 2 Години

Нова тема   Відповісти