007: Спектр (Джеймс Бонд Агент James Bond) / Spectre (2015) Remux 1080p Ukr/Eng | Sub Ukr/Eng

Нові коментарі

Нова тема   Відповісти
Автор Повідомлення
MakRA 
VIP


З нами з: 11.11.18
Востаннє: 25.09.20
Повідомлень: 1120

2020-04-08 01:11  
007: Спектр (Джеймс Бонд Агент James Bond) / Spectre (2015) Remux 1080p Ukr/Eng | Sub Ukr/Eng

007: Спектр (Джеймс Бонд Агент James Bond) / Spectre (2015) Remux 1080p Ukr/Eng | Sub Ukr/Eng

Українські постери:



Альтернативні обкладинки:


Жанр: екшн, пригодницький, трилер
Країна: США , Велика Британія



Кінокомпанія: B24, Columbia Pictures, Danjaq, Eon Productions (as Albert R. Broccoli's Eon Productions), Metro-Goldwyn-Mayer (MGM)
Режисер: Сем Мендес [Sam Mendes]
Актори: Деніел Крейґ [Daniel Craig], Леа Сейду [Léa Seydoux], Крістоф Вальц [Christoph Waltz], Наомі Гарріс [Naomie Harris], Бен Вішов [Ben Whishaw], Ральф Файнс [Ralph Fiennes], Ендрю Скотт [Andrew Scott], Моніка Беллуччі [Monica Bellucci], Рорі Кіннер [Rory Kinnear], Дейв Батіста [Dave Bautista]

Сюжет:
Черговий, двадцять четвертий фільм про англійського агента Джеймса Бонда, героя романів Яна Флемінга.
Сюжет відкриє погляд на зловісну організацію «Спектр», про яку Бонд дізнається з отриманого ним закодованого послання. У той же час, коли на МІ-6 чиниться колосальний політичний тиск, який обіцяє ліквідацією розвідувальної служби. Легендарному агенту належить розвіяти брехню, дістатися до істини, вивести на чисту воду організацію все ту ж організацію «Спектр» і зберегти найдорожче для себе. Як і завжди фільми з Джеймсом Бондом наповнені своїм характерним стилем, нестриманим драйвом і всеосяжної харизмою головного героя.


Тривалість: 02:28:07
Якість: Remux 1080p
Відео:
кодек:
розмір кадру: 1920 х 1080
бітрейт: 23,9 Mб/с

Аудіо # 1:
мова: українська
переклад: професійний дубльований | студія LeDoyen
кодек: 5.1
бітрейт: 448 кб/с
Про озвучення:

Переклад: Федора Сидорука
Режисер дубляжу: Ольга Фокіна
Звукорежисер: Михайло Угрин
Звукорежисер перезапису: Олег Кульчицький
Координатор проекту: Аліна Гаєвська
Ролі дублювали: Джеймс Бонд – Михайло Жонін, Франц – Андрій Самінін, Мадлен – Юлія Перенчук, С – Олександр Погребняк, М – Михайло Войчук, Маніпенні – Олена Узлюк, Q – Павло Скороходько, Теннер – Дмитро Завадський, Вайт – Євген Малуха, Лючія – Лариса Руснак та інші.

Фільм надано компанією Columbia Pictures. Дубльовано і зміксовано студією LeDoyen на замовлення компанії B&H Film Distribution.
Аудіо # 2:
мова: англійська
переклад: оригінал
кодек: -HD MA 7.1
бітрейт: 4742 кб/с

Аудіо # 3:
мова: англійська
переклад: оригінал
кодек: 5.1
бітрейт: 640 кб/с

Субтитри # 1-2: (Forced) | (Full)
мова: українська
тип: програмні (м'які)
формат: *.srt

Субтитри # 3-5: (Full) | (SDH) | (SDH-Colored)
мова: англійська
тип: програмні (м'які)
формат: *.srt

Субтитри # 6-7: (Forced) | (Full)
мова: англійська
тип: пререндерні
формат: *.pgs

Збережено оригінальні іменовані розділи, як на Blu-ray.
Info
General
Unique ID : 131425196400722616061763781322970190887 (0x62DF92766CA3B39AD3AE317D2F8B5427)
Complete name : I:\James Bond Movie Collection\James Bond Spectre (2015) Remux 1080p UkrEng Sub UkrEng [Hurtom].
Format :
Format version : Version 4
File size : 30.8 GiB
Duration : 2 h 28 min
Overall bit rate mode : Variable
Overall bit rate : 29.8 Mb/s
Movie name : Джеймс Бонд. Агент 007: Спектр / James Bond: Spectre (2015) Remux 1080p Ukr/Eng | Sub Ukr/Eng [Hurtom]
Encoded date : UTC 2020-04-07 21:02:16
Writing application : v44.0.0 ('Domino') 64-bit
Writing library : libebml v1.3.10 + v1.5.2
Cover : Yes
Attachments : cover.png

Video
ID : 1
Format : AVC
Format/Info : Advanced Video Codec
Format profile : [email protected]
Format settings : CABAC / 4 Ref Frames
Format settings, CABAC : Yes
Format settings, Reference fra : 4 frames
Codec ID : V_MPEG4/ISO/AVC
Duration : 2 h 28 min
Bit rate mode : Variable
Bit rate : 23.9 Mb/s
Maximum bit rate : 31.8 Mb/s
Width : 1 920 pixels
Height : 1 080 pixels
Display aspect ratio : 16:9
Frame rate mode : Constant
Frame rate : 23.976 (24000/1001) FPS
Color space : YUV
Chroma subsampling : 4:2:0
Bit depth : 8 bits
Scan type : Progressive
Bits/(Pixel*Frame) : 0.482
Stream size : 24.8 GiB (80%)
Title : James Bond: Spectre (2015) Remux 1080p Ukr/Eng | Sub Ukr/Eng [Hurtom]
Language : Ukrainian
Default : Yes
Forced : Yes

Audio #1
ID : 2
Format : AC-3
Format/Info : Audio Coding 3
Commercial name : Dolby Digital
Codec ID : A_AC3
Duration : 2 h 28 min
Bit rate mode : Constant
Bit rate : 448 kb/s
Channel(s) : 6 channels
Channel layout : L R C LFE Ls Rs
Sampling rate : 48.0 kHz
Frame rate : 31.250 FPS (1536 SPF)
Compression mode : Lossy
Stream size : 475 MiB (2%)
Title : DUB [Blu-Ray] 5.1 | студія LeDoyen
Language : Ukrainian
Service kind : Complete Main
Default : Yes
Forced : Yes

Audio #2
ID : 3
Format : XLL
Format/Info : Digital Theater Systems
Commercial name : -HD Master Audio
Codec ID : A_DTS
Duration : 2 h 28 min
Bit rate mode : Variable
Bit rate : 4 742 kb/s
Channel(s) : 8 channels
Channel layout : C L R LFE Lb Rb Lss Rss
Sampling rate : 48.0 kHz
Frame rate : 93.750 FPS (512 SPF)
Bit depth : 24 bits
Compression mode : Lossless
Stream size : 4.91 GiB (16%)
Title : Original -HD MA 7.1
Language : English
Default : No
Forced : No

Audio #3
ID : 4
Format : AC-3
Format/Info : Audio Coding 3
Commercial name : Dolby Digital
Codec ID : A_AC3
Duration : 2 h 28 min
Bit rate mode : Constant
Bit rate : 640 kb/s
Channel(s) : 6 channels
Channel layout : L R C LFE Ls Rs
Sampling rate : 48.0 kHz
Frame rate : 31.250 FPS (1536 SPF)
Compression mode : Lossy
Stream size : 678 MiB (2%)
Title : Original 5.1
Language : English
Service kind : Complete Main
Default : No
Forced : No

Text #1
ID : 5
Format : UTF-8
Codec ID : S_TEXT/UTF8
Codec ID/Info : UTF-8 Plain Text
Duration : 2 h 3 min
Bit rate : 2 b/s
Count of elements : 52
Stream size : 1.89 KiB (0%)
Title : Ukr (Forced) SRT
Language : Ukrainian
Default : Yes
Forced : Yes

Text #2
ID : 6
Format : UTF-8
Codec ID : S_TEXT/UTF8
Codec ID/Info : UTF-8 Plain Text
Duration : 2 h 27 min
Bit rate : 54 b/s
Count of elements : 1142
Stream size : 58.5 KiB (0%)
Title : Ukr (Full) SRT
Language : Ukrainian
Default : No
Forced : No

Text #3
ID : 7
Format : UTF-8
Codec ID : S_TEXT/UTF8
Codec ID/Info : UTF-8 Plain Text
Duration : 1 h 16 min
Bit rate : 1 b/s
Count of elements : 39
Stream size : 1.01 KiB (0%)
Title : Eng (Full) SRT
Language : English
Default : No
Forced : No

Text #4
ID : 8
Format : UTF-8
Codec ID : S_TEXT/UTF8
Codec ID/Info : UTF-8 Plain Text
Duration : 2 h 19 min
Bit rate : 37 b/s
Count of elements : 1362
Stream size : 38.5 KiB (0%)
Title : Eng (SDH) SRT
Language : English
Default : No
Forced : No

Text #5
ID : 9
Format : UTF-8
Codec ID : S_TEXT/UTF8
Codec ID/Info : UTF-8 Plain Text
Duration : 2 h 19 min
Bit rate : 44 b/s
Count of elements : 1362
Stream size : 46.0 KiB (0%)
Title : Eng (Full SDH-Colored)
Language : English
Default : No
Forced : No

Text #6
ID : 10
Format : PGS
Muxing mode : zlib
Codec ID : S_HDMV/PGS
Codec ID/Info : Picture based subtitle format used on BDs/HD-DVDs
Duration : 1 h 16 min
Bit rate : 1 134 b/s
Count of elements : 62
Stream size : 636 KiB (0%)
Title : Eng (Forced) PGS
Language : English
Default : No
Forced : No

Text #7
ID : 11
Format : PGS
Muxing mode : zlib
Codec ID : S_HDMV/PGS
Codec ID/Info : Picture based subtitle format used on BDs/HD-DVDs
Duration : 2 h 16 min
Bit rate : 21.5 kb/s
Count of elements : 2162
Stream size : 21.1 MiB (0%)
Title : Eng (Full) PGS
Language : English
Default : No
Forced : No

Menu
00:00:00.000 : en:The Dead Are Alive
00:06:09.118 : en:Mayhem in Mexico
00:13:04.784 : en:Opening Titles / Grounded
00:18:58.470 : en:Voice From the Grave
00:24:46.776 : en:Smart Blood
00:28:04.057 : en:Funeral in Rome
00:32:15.558 : en:Saving the Widow
00:36:58.591 : en:The Meeting
00:41:56.639 : en:Welcome James
00:46:13.145 : en:Identifing the Pale King
00:50:51.923 : en:Democracy at Work
00:53:43.220 : en:The King is Dead
01:00:21.367 : en:Meeting Dr. Swann
01:06:48.212 : en:Abduction
01:10:58.963 : en:Analysis / Escape
01:15:14.092 : en:Its Name is Spectre
01:18:55.647 : en:L'Amèricain's Secrets
01:26:11.040 : en:Nine Eyes Approved
01:29:39.999 : en:Trouble on the Train
01:36:43.547 : en:Crater in the Desert
01:41:44.389 : en:"The Author of Your Pain"
01:49:06.414 : en:Ernst Stavro Blofeld
01:55:52.820 : en:"Let's Go Home"
01:59:39.213 : en:Capture
02:04:19.743 : en:'C' Stands for...
02:09:28.510 : en:Three Minutes
02:14:05.662 : en:Out of Bullets
02:19:42.374 : en:"Just One Thing I Need" / Closing Credits
Скріншоти
Джерело: &
Особиста оцінка: 9 - давно не бачив настільки якісне кіно





Золотий реліз (завантажене не впливає на рейтинг)
 Трекер:    Зареєстрований   

Завантажити / скачати фільм українською



відео для новачків



 Зареєстрований:   2020-04-08 01:11
 Розмір:   30.81 GB 
 Оцінка фільму:   9.8/10 (Голосів: 14)
   
antik_2008 
Релізер і модератор відео


З нами з: 20.10.08
Востаннє: 25.09.20
Повідомлень: 4153

2020-04-13 01:41  
MakRA Дякую!
Залишилося дочекатися наступної частини Happy

Ваш часовий пояс: GMT + 2 Години

Нова тема   Відповісти