Поза Грою / Шлях Назад / The Way Back (2020) AVC Ukr/Eng | sub Eng

Нові коментарі

Нова тема   Відповісти
Автор Повідомлення
Anonymous 







2020-04-07 20:11  
Поза Грою / Шлях Назад / The Way Back (2020) AVC Ukr/Eng | sub Eng



Жанр: драма, спорт
Країна: США



Кінокомпанія: Warner Bros., PictSpyglass Media Group, BRON Studios, Mayhem Pictures Pearl Street Films
Режисер: Ґевін О'Коннор
Актори: Бен Аффлек, Ел Мадріґаль, Яніна Ґаванкар, Мішель Воткінс, Брендон Вілсон та інші

Сюжет:
Від режисера фільмів "Воїн" та "Аудитор". Джек Каннінгем пережив трагічну втрату, тепер він на дні життя. Йому пропонують стати тренером місцевої шкільної команди аутсайдерів з баскетболу, за яку Джек сам колись грав. Нове заняття допомагає йому знайти сенс життя, та надає шанс перемогти внутрішніх демонів, та пробачити себе за помилки минулого.


Тривалість: 01:48:26
Якість: AVC
Відео:
кодек:
розмір кадру: 1024 х 428
бітрейт: 2640 кб/с

Аудіо:
мова: українська (Присутня неномативна лексика)
переклад: двоголосий закадровий (Людмила Швець та Burton Jey)
кодек: 5.1
бітрейт: 384 кб/с

Аудіо # 2:
мова: англійська
переклад: оригінал
кодек: 5.1
бітрейт: 448 кб/с

Субтитри: (Full)
мова: англійська
тип: програмні (м'які)
формат: *.srt
Info
Код:
General
Complete name                            : The Way Back (2020) AVC [ukr, eng] [Video_Hurtom].
Format                                   :
Format version                           : Version 4
File size                                : 2.63 GiB
Duration                                 : 1 h 48 min
Overall bit rate                         : 3 474 kb/s
Movie name                               : Поза Грою / Шлях Назад / The Way Back (2020)
Encoded date                             : UTC 2020-05-13 16:48:45
Writing application                      : v30.1.0 ('Forever And More') 64-bit
Writing library                          : libebml v1.3.6 + v1.4.9
Cover                                    : Yes
Attachments                              : cover.jpg

Video
ID                                       : 1
Format                                   : AVC
Format/Info                              : Advanced Video Codec
Format profile                           : [email protected]
Format settings                          : CABAC / 12 Ref Frames
Format settings, CABAC                   : Yes
Format settings, RefFrames               : 12 frames
Codec ID                                 : V_MPEG4/ISO/AVC
Duration                                 : 1 h 48 min
Bit rate                                 : 2 640 kb/s
Width                                    : 1 024 pixels
Height                                   : 428 pixels
Display aspect ratio                     : 2.40:1
Frame rate mode                          : Constant
Frame rate                               : 23.976 (23976/1000) FPS
Color space                              : YUV
Chroma subsampling                       : 4:2:0
Bit depth                                : 8 bits
Scan type                                : Progressive
Bits/(Pixel*Frame)                       : 0.251
Stream size                              : 2.00 GiB (76%)
Title                                    : Enigma
Writing library                          : core 152 r2851 ba24899
Encoding settings                        : cabac=1 / ref=12 / deblock=1:-2:-2 / analyse=0x3:0x113 / me=umh / subme=10 / psy=1 / psy_rd=1.00:0.05 / mixed_ref=1 / me_range=32 / chroma_me=1 / trellis=2 / 8x8dct=1 / cqm=0 / deadzone=21,11 / fast_pskip=1 / chroma_qp_offset=-3 / threads=12 / lookahead_threads=3 / sliced_threads=0 / nr=0 / decimate=1 / interlaced=0 / bluray_compat=0 / constrained_intra=0 / bframes=10 / b_pyramid=2 / b_adapt=2 / b_bias=0 / direct=1 / weightb=1 / open_gop=0 / weightp=2 / keyint=240 / keyint_min=23 / scenecut=40 / intra_refresh=0 / rc=crf / mbtree=0 / crf=19.0 / qcomp=0.60 / qpmin=0 / qpmax=51 / qpstep=4 / ip_ratio=1.40 / pb_ratio=1.30 / aq=2:0.80
Language                                 : English
Default                                  : Yes
Forced                                   : No

Audio #1
ID                                       : 2
Format                                   : AC-3
Format/Info                              : Audio Coding 3
Commercial name                          : Dolby Digital
Codec ID                                 : A_AC3
Duration                                 : 1 h 48 min
Bit rate mode                            : Constant
Bit rate                                 : 384 kb/s
Channel(s)                               : 6 channels
Channel layout                           : L R C LFE Ls Rs
Sampling rate                            : 48.0 kHz
Frame rate                               : 31.250 FPS (1536 SPF)
Bit depth                                : 16 bits
Compression mode                         : Lossy
Delay relative to video                  : 2 s 105 ms
Stream size                              : 298 MiB (11%)
Title                                    : 5.1 | 384
Language                                 : Ukrainian
Service kind                             : Complete Main
Default                                  : Yes
Forced                                   : No

Audio #2
ID                                       : 3
Format                                   : AC-3
Format/Info                              : Audio Coding 3
Commercial name                          : Dolby Digital
Codec ID                                 : A_AC3
Duration                                 : 1 h 48 min
Bit rate mode                            : Constant
Bit rate                                 : 448 kb/s
Channel(s)                               : 6 channels
Channel layout                           : L R C LFE Ls Rs
Sampling rate                            : 48.0 kHz
Frame rate                               : 31.250 FPS (1536 SPF)
Bit depth                                : 16 bits
Compression mode                         : Lossy
Stream size                              : 347 MiB (13%)
Title                                    : 5.1 | 448
Language                                 : English
Service kind                             : Complete Main
Default                                  : No
Forced                                   : No

Text #1
ID                                       : 4
Format                                   : UTF-8
Codec ID                                 : S_TEXT/UTF8
Codec ID/Info                            : UTF-8 Plain Text
Duration                                 : 1 h 39 min
Bit rate                                 : 68 b/s
Count of elements                        : 1713
Stream size                              : 50.0 KiB (0%)
Title                                    : Full
Language                                 : English
Default                                  : No
Forced                                   : No

Text #2
ID                                       : 5
Format                                   : UTF-8
Codec ID                                 : S_TEXT/UTF8
Codec ID/Info                            : UTF-8 Plain Text
Duration                                 : 1 h 40 min
Bit rate                                 : 77 b/s
Count of elements                        : 1855
Stream size                              : 57.1 KiB (0%)
Title                                    : SDH
Language                                 : English
Default                                  : No
Forced                                   : No

Menu
00:00:00.000                             : en:Chapter 1
00:09:40.371                             : en:Chapter 2
00:15:53.786                             : en:Chapter 3
00:24:44.816                             : en:Chapter 4
00:31:35.101                             : en:Chapter 5
00:37:54.897                             : en:Chapter 6
00:45:01.073                             : en:Chapter 7
00:54:15.418                             : en:Chapter 8
01:04:14.851                             : en:Chapter 9
01:09:06.142                             : en:Chapter 10
01:17:57.464                             : en:Chapter 11
01:27:57.188                             : en:Chapter 12
01:33:17.508                             : en:Chapter 13
01:42:39.403                             : en:Chapter 14
Скріншоти


Над релізом працювали
Звук та зведення: Electroz
Постер: mrgalser
Озвучення: Людмила Швець, Роман Борисенко (переклад)
Джерело:
Особиста оцінка: 8 - мені сподобалося


Авторський реліз (завантажувати можна без реєстрації)
 Трекер:    Зареєстрований   

Завантажити / скачати фільм українською



відео для новачків



 Зареєстрований:   2020-05-13 20:27
 Розмір:   2.63 GB 
 Оцінка фільму:   7.9/10 (Голосів: 41)
   
пан Струмок 
VIP


З нами з: 19.02.13
Востаннє: 05.07.20
Повідомлень: 265

2020-04-16 18:11  
двічі сідав до перегляду, не подужав. Усе якесь недоладне та кострубате
Anonymous 







2020-04-17 11:01  
8|10
Lil`Antoni 
VIP


З нами з: 25.02.12
Востаннє: 06.07.20
Повідомлень: 837

2020-04-28 21:02  
Цікавий фільм, та що з перекладом ? якийсь розсинхрон, чути англійську доріжку дуже сильно Sad (1)((

І на телевізорі і на компі так само.

Може можна поправити? Бо дуже ріже слух ((

Paholok 
Частий відвідувач


З нами з: 20.10.10
Востаннє: 07.07.20
Повідомлень: 29

2020-05-06 10:38  
Супер слабеньке за усіма параметрами кіно. Навіть талановитий Аффлек його не витягнув. Хоча і намагався
Anonymous 







2020-05-13 20:28  
Торент файл оновлено. Заміна відео на 
kuts-vv 
VIP


З нами з: 11.12.11
Востаннє: 04.07.20
Повідомлень: 312

2020-05-13 21:44  
Споддобався. Реальна історія.
perepadia 
VIP


З нами з: 27.10.08
Востаннє: 07.07.20
Повідомлень: 300

2020-05-14 08:40  
Невже так складно передати нормальною мовою чуттєву збентеженість?

Матюки роблять з тебе москаля (с)
:-)

Андреас 
Новенький


З нами з: 04.05.09
Востаннє: 06.07.20
Повідомлень: 19

2020-05-14 11:11  
Мені фільм сподобався. 7,5/10
Ніби й історія не нова, але деякі сюжетні повороти для мене були несподівані.
До перегляду рекомендую

chubbchubbs 
Свій


З нами з: 29.03.08
Востаннє: 05.07.20
Повідомлень: 67

2020-05-14 23:21  
Оце декілька хвилин сидів і дивився на слова "Поза Грою" Раз ця поза пишеться з великої - то Грой є якась знаменитість? А чому я його не знаю? І що то за поза?
xROIxHOLx 
Новенький


З нами з: 10.01.12
Востаннє: 05.07.20
Повідомлень: 2

2020-06-07 12:35  
Цитата:
мова: українська (Присутня неномативна лексика)

Виправте на "ненормативна", дякую!

Ваш часовий пояс: GMT + 2 Години

Нова тема   Відповісти