Ханна. Досконала (ідеальна) зброя / Hanna (2011) Remux 1080p 3xUkr/Eng | Sub Ukr/Eng

Нові коментарі

Нова тема   Відповісти
Останній раз роздавалося coltojkee (2020-07-11)
Автор Повідомлення
Anonymous 







2020-04-07 19:01  
Ханна. Досконала (ідеальна) зброя / Hanna (2011) Remux 1080p 3xUkr/Eng | Sub Ukr/Eng

Ханна. Досконала (ідеальна) зброя / Hanna (2011) Remux 1080p 3xUkr/Eng | Sub Ukr/Eng


Жанр: екшн, пригодницький, трилер
Країна: США, Велика Британія, Німеччина



Кінокомпанія: Focus Features, Holleran Company, Sechzehnte Babelsberg Film
Режисер: Джо Райт
Актори: Сірша Ронан, Ерік Бана, Вікі Кріпс, Кейт Бланшет, Паріс Айрровсміт, Джон Макміллан, Тім Бекмен, Пол Бірчард, Крістіан Малкольм, Джеймі Беміш

Сюжет:
16-річна Ганна, яку батько виховував, щоб та стала ідеальним убивцею, вирушає з місією по Европі. Її переслідує безжалісний аґент розвідки разом зі своїми помічниками.


Тривалість: 01:51:02
Якість: Blu-Ray Remux 1080p
Відео:
кодек:
розмір кадру: 1920x1080
бітрейт: 30.9 мб/с

Аудіо # 1:
мова: українська
переклад: багатоголосий закадровий
кодек: 2.0
бітрейт: 192 кб/с

Аудіо # 2:
мова: українська
переклад: багатоголосий закадровий
кодек: 2.0
бітрейт: 192 кб/с

Аудіо # 3:
мова: українська
переклад: двоголосий закадровий
кодек: 2.0
бітрейт: 192 кб/с

Аудіо # 4:
мова: англійська
переклад: оригінал
кодек: -HD MA 5.1
бітрейт: 3909 кб/с

Субтитри #1:
мова: українська (повні)(також можна завантажити окремим файлом)
тип: програмні (м'які)
формат: *.srt

Субтитри #2:
мова: англійська (повні) (також можна завантажити окремим файлом)
тип: програмні (м'які)
формат: *.srt
Info
Код:
General
Complete name                            : Hanna (2011) Remux 1080p [3xukr, eng] [Video_Hurtom].
Format                                   :
Format version                           : Version 4
File size                                : 27.4 GiB
Duration                                 : 1 h 51 min
Overall bit rate mode                    : Variable
Overall bit rate                         : 35.3 Mb/s
Movie name                               : Ханна. Досконала зброя / Hanna (2011)
Encoded date                             : UTC 2020-04-07 13:23:47
Writing application                      : v44.0.0 ('Domino') 64-bit
Writing library                          : libebml v1.3.10 + v1.5.2
Cover                                    : Yes
Attachments                              : cover.jpg

Video
ID                                       : 1
Format                                   : AVC
Format/Info                              : Advanced Video Codec
Format profile                           : [email protected]
Format settings                          : CABAC / 4 Ref Frames
Format settings, CABAC                   : Yes
Format settings, RefFrames               : 4 frames
Format settings, GOP                     : M=3, N=12
Codec ID                                 : V_MPEG4/ISO/AVC
Duration                                 : 1 h 51 min
Bit rate mode                            : Variable
Bit rate                                 : 30.9 Mb/s
Maximum bit rate                         : 35.0 Mb/s
Width                                    : 1 920 pixels
Height                                   : 1 080 pixels
Display aspect ratio                     : 16:9
Frame rate mode                          : Constant
Frame rate                               : 23.976 (24000/1001) FPS
Color space                              : YUV
Chroma subsampling                       : 4:2:0
Bit depth                                : 8 bits
Scan type                                : Progressive
Bits/(Pixel*Frame)                       : 0.621
Stream size                              : 23.9 GiB (87%)
Default                                  : Yes
Forced                                   : No
Color range                              : Limited
Color primaries                          : BT.709
Transfer characteristics                 : BT.709
Matrix coefficients                      : BT.709

Audio #1
ID                                       : 2
Format                                   : AC-3
Format/Info                              : Audio Coding 3
Commercial name                          : Dolby Digital
Codec ID                                 : A_AC3
Duration                                 : 1 h 51 min
Bit rate mode                            : Constant
Bit rate                                 : 192 kb/s
Channel(s)                               : 2 channels
Channel layout                           : L R
Sampling rate                            : 48.0 kHz
Frame rate                               : 31.250 FPS (1536 SPF)
Bit depth                                : 16 bits
Compression mode                         : Lossy
Stream size                              : 152 MiB (1%)
Title                                    : 2.0 | 192 {HTH)
Language                                 : Ukrainian
Service kind                             : Complete Main
Default                                  : Yes
Forced                                   : No

Audio #2
ID                                       : 3
Format                                   : AC-3
Format/Info                              : Audio Coding 3
Commercial name                          : Dolby Digital
Codec ID                                 : A_AC3
Duration                                 : 1 h 51 min
Bit rate mode                            : Constant
Bit rate                                 : 192 kb/s
Channel(s)                               : 2 channels
Channel layout                           : L R
Sampling rate                            : 48.0 kHz
Frame rate                               : 31.250 FPS (1536 SPF)
Bit depth                                : 16 bits
Compression mode                         : Lossy
Stream size                              : 152 MiB (1%)
Title                                    : 2.0 | 192 (ICTV)
Language                                 : Ukrainian
Service kind                             : Complete Main
Default                                  : No
Forced                                   : No

Audio #3
ID                                       : 4
Format                                   : AC-3
Format/Info                              : Audio Coding 3
Commercial name                          : Dolby Digital
Codec ID                                 : A_AC3
Duration                                 : 1 h 51 min
Bit rate mode                            : Constant
Bit rate                                 : 192 kb/s
Channel(s)                               : 2 channels
Channel layout                           : L R
Sampling rate                            : 48.0 kHz
Frame rate                               : 31.250 FPS (1536 SPF)
Bit depth                                : 16 bits
Compression mode                         : Lossy
Stream size                              : 152 MiB (1%)
Title                                    : 2.0 | 192 (2+2)
Language                                 : Ukrainian
Service kind                             : Complete Main
Default                                  : No
Forced                                   : No

Audio #4
ID                                       : 5
Format                                   : XLL
Format/Info                              : Digital Theater Systems
Commercial name                          : -HD Master Audio
Codec ID                                 : A_DTS
Duration                                 : 1 h 51 min
Bit rate mode                            : Variable
Bit rate                                 : 3 909 kb/s
Channel(s)                               : 6 channels
Channel layout                           : C L R Ls Rs LFE
Sampling rate                            : 48.0 kHz
Frame rate                               : 93.750 FPS (512 SPF)
Bit depth                                : 24 bits
Compression mode                         : Lossless
Stream size                              : 3.03 GiB (11%)
Title                                    : -HD MA 5.1 | 3909
Language                                 : English
Default                                  : No
Forced                                   : No

Text #1
ID                                       : 6
Format                                   : UTF-8
Codec ID                                 : S_TEXT/UTF8
Codec ID/Info                            : UTF-8 Plain Text
Duration                                 : 1 h 41 min
Bit rate                                 : 47 b/s
Count of elements                        : 768
Stream size                              : 35.4 KiB (0%)
Title                                    : Full
Language                                 : Ukrainian
Default                                  : Yes
Forced                                   : No

Text #2
ID                                       : 7
Format                                   : UTF-8
Codec ID                                 : S_TEXT/UTF8
Codec ID/Info                            : UTF-8 Plain Text
Duration                                 : 1 h 41 min
Bit rate                                 : 30 b/s
Count of elements                        : 762
Stream size                              : 22.6 KiB (0%)
Title                                    : Full
Language                                 : English
Default                                  : No
Forced                                   : No
Скріншоти




Джерело:
Особиста оцінка: 8 - мені сподобалося

Українські доріжки і субтитри:
За доріжку від НТН дякую п.: xslim, Sando7, Arsenfpu
За доріжку від ICTV дякую п.: Bohdan237, Arsenfpu
За доріжку від 2+2 дякую п.: karvai0, xslim
За українські субтитри дякую п. Віктор'у


Золотий реліз (завантажене не впливає на рейтинг)
 Трекер:    Зареєстрований   

Завантажити / скачати фільм українською



відео для новачків



 Зареєстрований:   2020-04-07 19:01
 Розмір:   27.42 GB 
 Оцінка фільму:   9.4/10 (Голосів: 5)
   
Anonymous 







2020-04-13 15:00  
Гарний фільм!
Ваш часовий пояс: GMT + 2 Години

Нова тема   Відповісти