Гламурний бізнес / Like A Boss (2020) 1080p Ukr/Eng | Sub Ukr/Eng

Нові коментарі

Нова тема   Відповісти
Автор Повідомлення
Anonymous 







2020-04-07 13:19  
Гламурний бізнес / Like A Boss (2020) 1080p Ukr/Eng | Sub Ukr/Eng

Гламурний бізнес / Like A Boss (2020) 1080p Ukr/Eng | Sub Ukr/Eng
Альтернативний та оригінальні постери:

Гламурний бізнес / Like A Boss (2020) 1080p Ukr/Eng | Sub Ukr/Eng





Жанр: комедія
Країна: США



Кінокомпанія: Artists First, Paramount Pictures
Режисер: Міґель Артета / Miguel Arteta
Актори: Роуз Бірн / Rose Byrne, Сальма Хайєк / Salma Hayek, Тіффані Геддіш / Tiffany Haddish, Ліза Кудров / Lisa Kudrow, Дженніфер Кулідж / Jennifer Coolidge, Мелісса Сент-Аманд / Melissa Saint-Amand, Ері Ґрейнор / Ari Graynor, Каран Соні / Karan Soni, Біллі Портер / Billy Porter та інші.

Сюжет:
Дві найкращі подруги ведуть успішний б'юті-бізнес і відриваються на повну, шокуючи оточення, а іноді навіть самих себе. В якусь мить, вони усвідомлюють, що по вуха в боргах, тому гламур і шик більше не для них. На що підуть дівчата, щоб втриматися на плаву, зберегти бізнес і не зненавидіти одна одну в процесі?!
Офіційні українські трейлери:




Рейтинг MPAA: R - особам до 17 років обов'язкова присутність батьків або дорослого опікуна
Вікова категорія: 16+

Тривалість: 01:23:25
Якість: 1080p

Відео:
кодек:
розмір кадру: 1920x800
бітрейт: 14,4 Мб/с

Аудіо # 1:
мова: українська
переклад: професійний дубльований
кодек: 5.1
бітрейт: 384 кб/с

Аудіо # 2:
мова: українська
переклад: професійний дубльований
кодек: 2.0 [стерео]
бітрейт: 192 кб/с

Аудіо # 3:
мова: англійська
переклад: оригінал
кодек: 5.1
бітрейт: 640 кб/с

Субтитри # 1-2:
мова: українська (форсовані, повні)
тип: програмні (м'які)
формат: *.srt
перекладач: Олена Цехмейструк

Субтитри # 3:
мова: англійська
тип: програмні (м'які)
формат: *.srt

Збережено оригінальні розділи, як на Blu-ray
Info
Код:
Complete name               : Like A Boss (2020) [Ukr,Eng sub.Ukr,Eng] 1080p [Hurtom].
Format                      :
Format version              : Version 4
File size                   : 9.10 GiB
Duration                    : 1 h 23 min
Overall bit rate            : 15.6 Mb/s
Movie name                  : Гламурний бізнес / Like A Boss (2020) [Ukr,Eng sub.Ukr,Eng] 1080p [Hurtom]
Encoded date                : UTC 2020-06-13 20:02:35
Writing application         : v47.0.0 ('Black Flag') 64-bit
Writing library             : libebml v1.3.10 + v1.5.2
Cover                       : Yes
Attachments                 : cover.jpg

Video
ID                          : 1
Format                      : AVC
Format/Info                 : Advanced Video Codec
Format profile              : [email protected]
Format settings             : CABAC / 5 Ref Frames
Format settings, CABAC      : Yes
Format settings, Reference  : 5 frames
Codec ID                    : V_MPEG4/ISO/AVC
Duration                    : 1 h 23 min
Bit rate                    : 14.4 Mb/s
Width                       : 1 920 pixels
Height                      : 800 pixels
Display aspect ratio        : 2.40:1
Frame rate mode             : Constant
Frame rate                  : 23.976 (24000/1001) FPS
Color space                 : YUV
Chroma subsampling          : 4:2:0
Bit depth                   : 8 bits
Scan type                   : Progressive
Bits/(Pixel*Frame)          : 0.391
Stream size                 : 8.39 GiB (92%)
Title                       : Гламурний бізнес / Like A Boss (2020) 1080p [playHD]
Writing library             : core 160 r3000 33f9e14
Encoding settings           : cabac=1 / ref=5 / deblock=1:-3:-3 / analyse=0x3:0x133 / me=umh / subme=10 / psy=1 / psy_rd=1.00:0.00 / mixed_ref=1 / me_range=32 / chroma_me=1 / trellis=2 / 8x8dct=1 / cqm=0 / deadzone=21,11 / fast_pskip=0 / chroma_qp_offset=-2 / threads=12 / lookahead_threads=2 / sliced_threads=0 / nr=0 / decimate=0 / interlaced=0 / bluray_compat=0 / constrained_intra=0 / bframes=8 / b_pyramid=2 / b_adapt=2 / b_bias=0 / direct=3 / weightb=1 / open_gop=0 / weightp=2 / keyint=250 / keyint_min=23 / scenecut=40 / intra_refresh=0 / rc=crf / mbtree=0 / crf=14.8 / qcomp=0.65 / qpmin=0 / qpmax=69 / qpstep=4 / ip_ratio=1.30 / pb_ratio=1.20 / aq=3:0.85 / zones=116219,119992,b=0.6
Language                    : English
Default                     : Yes
Forced                      : No

Audio #1
ID                          : 2
Format                      : AC-3
Format/Info                 : Audio Coding 3
Commercial name             : Dolby Digital
Codec ID                    : A_AC3
Duration                    : 1 h 23 min
Bit rate mode               : Constant
Bit rate                    : 384 kb/s
Channel(s)                  : 6 channels
Channel layout              : L R C LFE Ls Rs
Sampling rate               : 48.0 kHz
Frame rate                  : 31.250 FPS (1536 SPF)
Compression mode            : Lossy
Stream size                 : 229 MiB (2%)
Title                       : Dub [LeDoyen, iTunes], 5.1 384 Kbps
Language                    : Ukrainian
Service kind                : Complete Main
Default                     : Yes
Forced                      : Yes

Audio #2
ID                          : 3
Format                      : AC-3
Format/Info                 : Audio Coding 3
Commercial name             : Dolby Digital
Codec ID                    : A_AC3
Duration                    : 1 h 23 min
Bit rate mode               : Constant
Bit rate                    : 192 kb/s
Channel(s)                  : 2 channels
Channel layout              : L R
Sampling rate               : 48.0 kHz
Frame rate                  : 31.250 FPS (1536 SPF)
Compression mode            : Lossy
Stream size                 : 115 MiB (1%)
Title                       : Dub [LeDoyen, iTunes], 2.0 [stereo] 192 Kbps
Language                    : Ukrainian
Service kind                : Complete Main
Default                     : No
Forced                      : No

Audio #3
ID                          : 4
Format                      : AC-3
Format/Info                 : Audio Coding 3
Commercial name             : Dolby Digital
Codec ID                    : A_AC3
Duration                    : 1 h 23 min
Bit rate mode               : Constant
Bit rate                    : 640 kb/s
Channel(s)                  : 6 channels
Channel layout              : L R C LFE Ls Rs
Sampling rate               : 48.0 kHz
Frame rate                  : 31.250 FPS (1536 SPF)
Compression mode            : Lossy
Stream size                 : 382 MiB (4%)
Title                       : Original, 5.1 640 Kbps
Language                    : English
Service kind                : Complete Main
Default                     : No
Forced                      : No

Text #1
ID                          : 5
Format                      : UTF-8
Codec ID                    : S_TEXT/UTF8
Codec ID/Info               : UTF-8 Plain Text
Duration                    : 1 h 21 min
Bit rate                    : 1 b/s
Count of elements           : 21
Stream size                 : 936 Bytes (0%)
Title                       : Ukr Forced [iTunes]
Language                    : Ukrainian
Default                     : No
Forced                      : Yes

Text #2
ID                          : 6
Format                      : UTF-8
Codec ID                    : S_TEXT/UTF8
Codec ID/Info               : UTF-8 Plain Text
Duration                    : 1 h 22 min
Bit rate                    : 126 b/s
Count of elements           : 1457
Stream size                 : 76.8 KiB (0%)
Title                       : Ukr Full [iTunes]
Language                    : Ukrainian
Default                     : No
Forced                      : No

Text #3
ID                          : 7
Format                      : UTF-8
Codec ID                    : S_TEXT/UTF8
Codec ID/Info               : UTF-8 Plain Text
Duration                    : 1 h 20 min
Bit rate                    : 96 b/s
Count of elements           : 1591
Stream size                 : 57.2 KiB (0%)
Title                       : Eng Full
Language                    : English
Default                     : No
Forced                      : No

Menu
00:00:00.000                : :Chapter 01
00:05:32.374                : :Chapter 02
00:14:59.690                : :Chapter 03
00:23:37.833                : :Chapter 04
00:30:46.887                : :Chapter 05
00:39:26.990                : :Chapter 06
00:49:39.768                : :Chapter 07
01:00:43.431                : :Chapter 08
01:10:10.456                : :Chapter 09
01:19:22.007                : :Chapter 10



Джерело: & &
Історія релізу:
07.04.2020 початковий реліз 1080p, оригінал + офіційні укр.субтитри
29.05.2020 відеоряд замінено з на та додано український дубляж в стерео
14.06.2020 реліз оновлено: додано український дубляж 5.1


 Трекер:    Зареєстрований   

Завантажити / скачати фільм українською



відео для новачків



 Зареєстрований:   2020-06-14 18:53
 Розмір:   9.1 GB 
 Оцінка фільму:   7.9/10 (Голосів: 20)
 ЗАЛИШАЙТЕСЬ ЯКОМОГА ДОВШЕ НА РОЗДАЧІ! ЗАВАНТАЖИВ САМ - ДАЙ ЗАВАНТАЖИТИ ІНШИМ!
   
380983801076 
Поважний учасник


З нами з: 30.03.12
Востаннє: 28.09.20
Повідомлень: 175

2020-05-29 14:01  
Крім Сальмочки там є на що дивитися?)
+380954897458 
VIP


З нами з: 02.06.17
Востаннє: 18.09.20
Повідомлень: 942

2020-05-29 18:58  
380983801076
Ще можна на Розочку подивитися. Wide grin

Anonymous 







2020-05-29 21:35  
Реліз оновлено: відеоряд замінено з на та додано український дубляж
Oleksa9 
VIP


З нами з: 17.05.12
Востаннє: 28.09.20
Повідомлень: 412

2020-05-30 22:03  
То Сальмочка така страшна стала чи з макіяжем перебір?
+380954897458 
VIP


З нами з: 02.06.17
Востаннє: 18.09.20
Повідомлень: 942

2020-05-30 22:41  
Oleksa9
Перебір з фотошопом. На екрані вона завжди виглядає чудово, як на мене.

Aktumo 
Новенький


З нами з: 22.12.15
Востаннє: 02.09.20
Повідомлень: 3

2020-06-07 14:46  
почитав у мережі відгуки - жахливі, не став качати
Anonymous 







2020-06-14 18:54  
Реліз оновлено: додано український дубляж 5.1 
vovang6 
Поважний учасник


З нами з: 27.08.12
Востаннє: 27.09.20
Повідомлень: 221

2020-06-16 09:20  
4/10. Нiчого не втратите, якщо не перегляните.
0mage0 
VIP


З нами з: 06.10.15
Востаннє: 28.09.20
Повідомлень: 696

2020-06-25 16:54  
У фільмі дуже багато несмішних жартів про члени та піхви :/ Але, як не дивно, також присутній, хоч і дуже нехитрий та шаблонний, сюжет.
Незрозуміло, як вони "рейдернули" сцену наприкінці фільму. Їх би просто вигнали звідти.
Переклад рясніє різноманітними блінами. Також дівки пропонують називати себе шмарами. Невже якась дівка скаже таке на себе? (в оригіналі було bitch, тобто сучка).

Ваш часовий пояс: GMT + 2 Години

Нова тема   Відповісти