007: Квант милосердя (Джеймс Бонд Агент James Bond) / Quantum of Solace (2008) Remux 1080p 3xUkr/Eng | Sub Ukr/Eng

Нові коментарі

Нова тема   Відповісти
Останній раз роздавалося MakRA (2020-09-29)
Автор Повідомлення
MakRA 
VIP


З нами з: 11.11.18
Востаннє: 29.09.20
Повідомлень: 1120

2020-04-07 01:40  
007: Квант милосердя / Quantum of Solace (2008) Remux 1080p 3xUkr/Eng | Sub Ukr/Eng

007: Квант милосердя (Джеймс Бонд Агент James Bond) / Quantum of Solace (2008) Remux 1080p 3xUkr/Eng | Sub Ukr/Eng

Українські постери:


Альтернативні обкладинки:





Жанр: екшн, пригодницький, трилер
Країна: США , Велика Британія



Кінокомпанія: Metro-Goldwyn-Mayer (MGM), Columbia Pictures, Eon Productions, B22, Danjaq, United Artists
Режисер: Марк Форстер [Marc Forster]
Актори: Деніел Крейґ [Daniel Craig], Ольга Куриленко [Olga Kurylenko], Матьє Амальрік [Mathieu Amalric], Джуді Денч [Judi Dench], Джанкарло Джанніні [Giancarlo Giannini], Джемма Артертон [Gemma Arterton], Джеффрі Райт [Jeffrey Wright], Девід Гарбор [David Harbour], Еспер Крістенсен [Jesper Christensen], Анатоль Таубман [Anatole Taubman]

Сюжет:
Продовження культового шпигунського екшну про легендарного суперагента 007 знятого за романами британського письменника Іана Флемінга.
За сюжетом, після зради та самогубства Веспер, розлючений шпигун прагне помсти, а містер Уайт може вивести його на слід ворогів. При цьому Бонда переслідують охоронці Уайта, але він успішно відривається від погоні і привозить містера Уайта в притулок Мі-6 в Сієні. Розлючений агент 007 вибиває з нього зізнання, а той повідомляє, що у Організації скрізь є свої люди. Як виявилося, Уайт не брехав: один з охоронців М зриває допит і тікає. Бонд починає розуміти, що Організація, яка шантажувала, Веспер набагато складніша і небезпечніша, ніж можна було подумати. Прагнучі помсти, 007 виходить на слід Домініка Гріна, впливового бізнесмена, який купує високопоставлених чиновників, немов дешевих повій…


Тривалість: 01:46:14
Якість: Remux 1080p
Відео:
кодек:
розмір кадру: 1920 х 1080
бітрейт: 28,9 Mб/с

Аудіо # 1:
мова: українська
переклад: професійний дубльований | Невафільм Україна
кодек: 5.1
бітрейт: 448 кб/с

Аудіо # 2:
мова: українська
переклад: професійний дубльований | Студія «Пілот» на замовлення ICTV
кодек: 5.1
бітрейт: 384 кб/с

Аудіо # 3:
мова: українська
переклад: багатоголосий закадровий
кодек: 2.0
бітрейт: 256 кб/с

Аудіо # 4:
мова: англійська
переклад: оригінал
кодек: -HD HR 5.1
бітрейт: 3018 кб/с

Аудіо # 5:
мова: англійська
переклад: оригінал
кодек: 5.1
бітрейт: 448 кб/с

Субтитри # 1-2: (Forced) | (Full)
мова: українська
тип: програмні (м'які)
формат: *.srt

Субтитри # 3: (Full)
мова: англійська
тип: програмні (м'які)
формат: *.srt

Субтитри # 4: (Full)
мова: українська
тип: пререндерні
формат: *.pgs

Субтитри # 5: (Full)
мова: англійська
тип: пререндерні
формат: *.pgs

Збережено оригінальні іменовані розділи, як на Blu-ray.
Info
General
Unique ID : 310349437931489403036073610801908366932 (0xE97B20A8A9D93F1CB5296EACE4513E54)
Complete name : I:\James Bond Movie Collection\Quantum of Solace (2008) Remux 1080p 3xUkrEng Sub UkrEng [Hurtom].
Format :
Format version : Version 4
File size : 24.9 GiB
Duration : 1 h 46 min
Overall bit rate mode : Variable
Overall bit rate : 33.5 Mb/s
Movie name : Квант милосердя / Quantum of Solace (2008) Remux 1080p 3xUkr/Eng | Sub Ukr/Eng [Hurtom]
Encoded date : UTC 2020-04-06 21:11:17
Writing application : v44.0.0 ('Domino') 64-bit
Writing library : libebml v1.3.10 + v1.5.2
Cover : Yes
Attachments : cover.jpg

Video
ID : 1
Format : AVC
Format/Info : Advanced Video Codec
Format profile : [email protected]
Format settings : CABAC / 4 Ref Frames
Format settings, CABAC : Yes
Format settings, Reference fra : 4 frames
Codec ID : V_MPEG4/ISO/AVC
Duration : 1 h 46 min
Bit rate mode : Variable
Bit rate : 28.9 Mb/s
Maximum bit rate : 36.0 Mb/s
Width : 1 920 pixels
Height : 1 080 pixels
Display aspect ratio : 16:9
Frame rate mode : Constant
Frame rate : 23.976 (24000/1001) FPS
Color space : YUV
Chroma subsampling : 4:2:0
Bit depth : 8 bits
Scan type : Progressive
Bits/(Pixel*Frame) : 0.582
Stream size : 21.5 GiB (86%)
Title : Quantum of Solace (2008) Remux 1080p 3xUkr/Eng | Sub Ukr/Eng [Hurtom]
Language : Ukrainian
Default : Yes
Forced : Yes
Color range : Limited
Color primaries : BT.709
Transfer characteristics : BT.709
Matrix coefficients : BT.709

Audio #1
ID : 2
Format : AC-3
Format/Info : Audio Coding 3
Commercial name : Dolby Digital
Codec ID : A_AC3
Duration : 1 h 46 min
Bit rate mode : Constant
Bit rate : 448 kb/s
Channel(s) : 6 channels
Channel layout : L R C LFE Ls Rs
Sampling rate : 48.0 kHz
Frame rate : 31.250 FPS (1536 SPF)
Compression mode : Lossy
Stream size : 340 MiB (1%)
Title : DUB [DVD R5] 5.1 | Невафільм Україна
Language : Ukrainian
Service kind : Complete Main
Default : Yes
Forced : Yes

Audio #2
ID : 3
Format : AC-3
Format/Info : Audio Coding 3
Commercial name : Dolby Digital
Codec ID : A_AC3
Duration : 1 h 46 min
Bit rate mode : Constant
Bit rate : 384 kb/s
Channel(s) : 6 channels
Channel layout : L R C LFE Ls Rs
Sampling rate : 48.0 kHz
Frame rate : 31.250 FPS (1536 SPF)
Compression mode : Lossy
Stream size : 292 MiB (1%)
Title : DUB [ICTV] 5.1 | Студія «Пілот» на замовлення ICTV
Language : Ukrainian
Service kind : Complete Main
Default : No
Forced : No

Audio #3
ID : 4
Format : AC-3
Format/Info : Audio Coding 3
Commercial name : Dolby Digital
Codec ID : A_AC3
Duration : 1 h 46 min
Bit rate mode : Constant
Bit rate : 256 kb/s
Channel(s) : 2 channels
Channel layout : L R
Sampling rate : 48.0 kHz
Frame rate : 31.250 FPS (1536 SPF)
Compression mode : Lossy
Stream size : 195 MiB (1%)
Title : MVO [1+1] 2.0
Language : Ukrainian
Service kind : Complete Main
Default : No
Forced : No

Audio #4
ID : 5
Format : XBR
Format/Info : Digital Theater Systems
Commercial name : -HD High Resolution Audio
Codec ID : A_DTS
Duration : 1 h 46 min
Bit rate mode : Constant
Bit rate : 3 018 kb/s
Channel(s) : 6 channels
Channel layout : C L R Ls Rs LFE
Sampling rate : 48.0 kHz
Frame rate : 93.750 FPS (512 SPF)
Bit depth : 24 bits
Compression mode : Lossy
Stream size : 2.24 GiB (9%)
Title : Original -HD HR 5.1
Language : English
Default : No
Forced : No

Audio #5
ID : 6
Format : AC-3
Format/Info : Audio Coding 3
Commercial name : Dolby Digital
Codec ID : A_AC3
Duration : 1 h 46 min
Bit rate mode : Constant
Bit rate : 448 kb/s
Channel(s) : 6 channels
Channel layout : L R C LFE Ls Rs
Sampling rate : 48.0 kHz
Frame rate : 31.250 FPS (1536 SPF)
Compression mode : Lossy
Stream size : 340 MiB (1%)
Title : Original 5.1
Language : English
Service kind : Complete Main
Default : No
Forced : No

Text #1
ID : 7
Format : UTF-8
Codec ID : S_TEXT/UTF8
Codec ID/Info : UTF-8 Plain Text
Duration : 1 h 39 min
Bit rate : 4 b/s
Count of elements : 75
Stream size : 3.39 KiB (0%)
Title : Ukr (Forced) SRT
Language : Ukrainian
Default : Yes
Forced : Yes

Text #2
ID : 8
Format : UTF-8
Codec ID : S_TEXT/UTF8
Codec ID/Info : UTF-8 Plain Text
Duration : 1 h 39 min
Bit rate : 62 b/s
Count of elements : 1007
Stream size : 45.5 KiB (0%)
Title : Ukr (Full) SRT
Language : Ukrainian
Default : No
Forced : No

Text #3
ID : 9
Format : UTF-8
Codec ID : S_TEXT/UTF8
Codec ID/Info : UTF-8 Plain Text
Duration : 1 h 40 min
Bit rate : 48 b/s
Count of elements : 1176
Stream size : 35.6 KiB (0%)
Title : Eng (Full) SRT
Language : English
Default : No
Forced : No

Text #4
ID : 10
Format : PGS
Muxing mode : zlib
Codec ID : S_HDMV/PGS
Codec ID/Info : Picture based subtitle format used on BDs/HD-DVDs
Duration : 1 h 43 min
Bit rate : 28.9 kb/s
Count of elements : 2016
Stream size : 21.5 MiB (0%)
Title : Ukr (Full) PGS
Language : Ukrainian
Default : No
Forced : No

Text #5
ID : 11
Format : PGS
Muxing mode : zlib
Codec ID : S_HDMV/PGS
Codec ID/Info : Picture based subtitle format used on BDs/HD-DVDs
Duration : 1 h 37 min
Bit rate : 28.0 kb/s
Count of elements : 1866
Stream size : 19.5 MiB (0%)
Title : Eng (Full) PGS
Language : English
Default : No
Forced : No

Menu
00:00:00.000 : en:The Welcoming Party
00:04:10.122 : en:Opening Credits
00:07:27.528 : en:Another Life
00:10:20.533 : en:Spy vs. Spy
00:15:16.831 : en:Playing Catch-up
00:17:47.647 : en:Haiti
00:20:24.305 : en:Get in!
00:22:51.367 : en:"You sent someone to kill me?"
00:26:28.420 : en:Facilitating a Change
00:29:06.367 : en:Who Needs Rescuing?
00:33:16.911 : en:Name Check
00:35:48.103 : en:Laissez-faire
00:39:02.130 : en:A Little Birdie Told Me...
00:44:19.154 : en:Compromised
00:47:21.796 : en:Mathis
00:52:30.895 : en:Bolivia
00:56:29.010 : en:Charitable Work
01:01:17.171 : en:Papers, please
01:04:51.012 : en:"Let's see if this thing'll fly."
01:11:04.800 : en:Today's Excuse
01:12:34.430 : en:"He left his mark."
01:17:16.421 : en:Greene's Secret
01:21:05.693 : en:No Free Lunch
01:24:17.718 : en:"You only need one shot."
01:29:19.934 : en:It's Personal
01:36:15.519 : en:"I wish I could set you free."
01:37:59.246 : en:Unfinished Business
01:41:39.134 : en:End Credits
Скріншоти
Джерело: &
За звук від 1+1 подяка п. SgBILko, за доріжку студії "Пілот" дякую п. Romario_O ,
за українські субтитри дякую п. igor911
Особиста оцінка: 9 - давно не бачив настільки якісне кіно





Золотий реліз (завантажене не впливає на рейтинг)
 Трекер:    Зареєстрований   

Завантажити / скачати фільм українською



відео для новачків



 Зареєстрований:   2020-04-07 01:46
 Розмір:   24.85 GB 
 Оцінка фільму:   9.9/10 (Голосів: 11)
   
antik_2008 
Релізер і модератор відео


З нами з: 20.10.08
Востаннє: 29.09.20
Повідомлень: 4166

2020-04-07 02:08  
MakRA Дякую за реліз! Шкода , що наступну частину перенесли - добре , що на листопад, а далі подивимося.
Ваш часовий пояс: GMT + 2 Години

Нова тема   Відповісти