Усі чоловіки роблять це / Зрозуміє тільки самотній / Only the Lonely (1991) AVC 2xUkr/Eng | Sub Eng

Нові коментарі

Нова тема   Відповісти
Автор Повідомлення
21jumpstreet 
VIP


З нами з: 03.07.12
Востаннє: 03.07.20
Повідомлень: 1091

2020-04-06 21:45  
Усі чоловіки роблять це / Зрозуміє тільки самотній / Only the Lonely (1991) AVC 2xUkr/Eng | Sub Eng

Усі чоловіки роблять це / Зрозуміє тільки самотній / Only the Lonely (1991) AVC 2xUkr/Eng | Sub Eng


Жанр: комедія, драма, романтичний
Країна: США



Кінокомпанія: Twentieth Century Fox Film Corporation
Режисер: Кріс Коламбус
Актори: Джон Кенді, Морін О`Хара, Еллі Шиді, Кевін Данн, Майло О`Ші, Берт Ремсен, Ентоні Куінн, Джеймс Белуші, Маколей Калкін, Кіран Калкін

Сюжет:
Чикагському поліцейському Денні Мулдуну минуло вже 38 років, а він продовжує залишатися неодруженим. Він живе зі своєю мамою Розою і зворушливо про неї піклується. Але одного дня в місцевому барі він зустрічає Терезу. Денні закохується в дівчину з першого погляду. І вона відповідає взаємністю. Лише капризна мати Денні затьмарює щасливі дні, виражаючи явне незадоволення: її зовсім не влаштовує перспектива стати свекрухою...


Тривалість: 01:44:45
Якість:
Відео:
кодек: Н.264
розмір кадру: 1024 х 552
бітрейт: 3328 кб/с

Аудіо # 1:
мова: українська
переклад: двоголосий закадровий 1+1 Чоловічі ролі озвучив Микола Козій
кодек: 2.0
бітрейт: 192 кб/с
примітка: в даній доріжці не було трьох хвилин перекладу (відрізок 01:03:03 - 01:06:02),
цей шматок було взято із доріжки ICTV.

Аудіо # 2:
мова: українська
переклад: двоголосий закадровий ICTV Чоловічі ролі озвучив Євген Пашин
кодек: 2.0
бітрейт: 192 кб/с

Аудіо # 3:
мова: англійська
переклад: оригінал
кодек: 2.0
бітрейт: 192 кб/с

Субтитри:
мова: англійська
тип: програмні (м'які)
формат: *.srt
Скріншоти



Info:
C:\Only the lonely (1991) AVC [2xUkr,Eng] [Hurtom].
General
Unique ID : 101041724406393173822217159686934545140 (0x4C03EDA2E296831C277ABEF3B57CC2F4)
Complete name : C:\Only the lonely (1991) AVC [2xUkr,Eng] [Hurtom].
Format :
Format version : Version 4 / Version 2
File size : 2.44 GiB
Duration : 1 h 44 min
Overall bit rate : 3 328 kb/s
Encoded date : UTC 2020-04-06 18:29:50
Writing application : v22.0.0 ('At The End Of The World') 32-bit
Writing library : libebml v1.3.5 + v1.4.8
Video #1
ID : 1
Format : AVC
Format/Info : Advanced Video Codec
Format profile : [email protected]
Format settings, CABAC : Yes
Format settings, ReFrames : 12 frames
Codec ID : V_MPEG4/ISO/AVC
Duration : 1 h 44 min
Bit rate : 2 750 kb/s
Width : 1 024 pixels
Height : 552 pixels
Display aspect ratio : 1.85:1
Frame rate mode : Constant
Frame rate : 23.976 (24000/1001) FPS
Color space : YUV
Chroma subsampling : 4:2:0
Bit depth : 8 bits
Scan type : Progressive
Bits/(Pixel*Frame) : 0.203
Stream size : 2.01 GiB (83%)
Title : Only the lonely (1991) [2xUkr,Eng] AVC [Hurtom]
Writing library : core 146 r2538 121396c
Encoding settings : cabac=1 / ref=12 / deblock=1:-1:-1 / analyse=0x3:0x113 / me=umh / subme=10 / psy=1 / psy_rd=1.00:0.10 / mixed_ref=1 / me_range=32 / chroma_me=1 / trellis=2 / 8x8dct=1 / cqm=0 / deadzone=21,11 / fast_pskip=0 / chroma_qp_offset=-3 / threads=6 / lookahead_threads=1 / sliced_threads=0 / nr=0 / decimate=0 / interlaced=0 / bluray_compat=0 / constrained_intra=0 / bframes=7 / b_pyramid=2 / b_adapt=2 / b_bias=0 / direct=3 / weightb=1 / open_gop=0 / weightp=2 / keyint=250 / keyint_min=25 / scenecut=40 / intra_refresh=0 / rc_lookahead=60 / rc=2pass / mbtree=1 / bitrate=2750 / ratetol=1.0 / qcomp=0.60 / qpmin=0 / qpmax=69 / qpstep=4 / cplxblur=20.0 / qblur=0.5 / vbv_maxrate=14000 / vbv_bufsize=14000 / nal_hrd=none / filler=0 / ip_ratio=1.40 / aq=1:1.00
Language : English
Default : No
Forced : No
Audio #2
ID : 2
Format : AC-3
Format/Info : Audio Coding 3
Mode extension : CM (complete main)
Format settings, Endianness : Big
Codec ID : A_AC3
Duration : 1 h 44 min
Bit rate mode : Constant
Bit rate : 192 kb/s
Channel(s) : 2 channels
Channel positions : Front: L R
Sampling rate : 48.0 kHz
Frame rate : 31.250 FPS (1536 spf)
Compression mode : Lossy
Stream size : 144 MiB (6%)
Title : Only the lonely 1+1
Language : Ukrainian
Default : Yes
Forced : Yes
Audio #3
ID : 3
Format : AC-3
Format/Info : Audio Coding 3
Mode extension : CM (complete main)
Format settings, Endianness : Big
Codec ID : A_AC3
Duration : 1 h 44 min
Bit rate mode : Constant
Bit rate : 192 kb/s
Channel(s) : 2 channels
Channel positions : Front: L R
Sampling rate : 48.0 kHz
Frame rate : 31.250 FPS (1536 spf)
Compression mode : Lossy
Stream size : 144 MiB (6%)
Title : Only the lonely ICTV
Language : Ukrainian
Default : No
Forced : No
Audio #4
ID : 4
Format : AC-3
Format/Info : Audio Coding 3
Mode extension : CM (complete main)
Format settings, Endianness : Big
Codec ID : A_AC3
Duration : 1 h 44 min
Bit rate mode : Constant
Bit rate : 192 kb/s
Channel(s) : 2 channels
Channel positions : Front: L R
Sampling rate : 48.0 kHz
Frame rate : 31.250 FPS (1536 spf)
Compression mode : Lossy
Stream size : 144 MiB (6%)
Title : Only the lonely Eng
Language : English
Default : No
Forced : No
Text #5
ID : 5
Format : UTF-8
Codec ID : S_TEXT/UTF8
Codec ID/Info : UTF-8 Plain Text
Duration : 1 h 40 min
Bit rate : 68 b/s
Count of elements : 2044
Stream size : 50.3 KiB (0%)
Title : SDH
Language : English
Default : No
Forced : No
Величезна подяка
abodnya за звукову доріжку від ICTV,
karvai0 за звукову доріжку від 1+1
зведення до - NemoInFire
зведення до - kryk-v.ya.

Джерело: &
Особиста оцінка: 10 - без зайвих вагань рекомендую всім!


Срібний реліз (на рейтинг впливає 50% завантаженого)
 Трекер:    Зареєстрований   

Завантажити / скачати фільм українською



відео для новачків



 Зареєстрований:   2020-04-06 22:01
 Розмір:   2.44 GB 
 Оцінка фільму:   9.6/10 (Голосів: 18)
   
bot 
робот


З нами з: 30.09.07
Востаннє: 26.05.05
Повідомлень: 24917

2020-04-06 21:45  
Тему перенесено з Художні фільми до форуму Анонси релізів


21jumpstreet

rudder1992 
Поважний учасник


З нами з: 26.02.17
Востаннє: 03.07.20
Повідомлень: 159

2020-04-06 21:49  
класс!
bot 
робот


З нами з: 30.09.07
Востаннє: 26.05.05
Повідомлень: 24917

2020-04-06 22:01  
Тему перенесено з Анонси релізів до форуму Фільми


21jumpstreet

taksist 
VIP


З нами з: 10.12.12
Востаннє: 02.07.20
Повідомлень: 372

2020-04-07 04:39  
про неї піклується - нею опікується, капризна - примхлива, явне - очевидне.
robotron005 
Відео Гуртом - фільмокрай
Відео Гуртом - фільмокрай


З нами з: 29.01.09
Востаннє: 30.06.20
Повідомлень: 3333

2020-04-07 18:39  
чому про першу доріжку не зазначено?

Цитата:
примітка: в даній доріжці не було трьох хвилин перекладу (відрізок 01:03:03 - 01:06:02),
цей шматок було взято із доріжки ICTV.

21jumpstreet 
VIP


З нами з: 03.07.12
Востаннє: 03.07.20
Повідомлень: 1091

2020-04-07 18:41  
robotron005
Вказав. Дякую.

andriy_nv 
VIP


З нами з: 27.06.08
Востаннє: 02.07.20
Повідомлень: 1039

2020-04-18 18:27  
нормальне кіно, раз глянути можна
вальдемар 
Поважний учасник


З нами з: 06.01.11
Востаннє: 29.06.20
Повідомлень: 183

2020-06-29 18:17  
Гарненьке кіно.
Ваш часовий пояс: GMT + 2 Години

Нова тема   Відповісти