Ханна. Досконала (ідеальна) зброя / Hanna (2011) 1080p 3xUkr/Eng | Sub Ukr/Eng

Нові коментарі

Нова тема   Відповісти
Автор Повідомлення
Anonymous 







2020-04-06 21:34  
Ханна. Ідеальна зброя / Hanna (2011) 1080p 3xUkr/Eng | Sub Ukr/Eng




Жанр: пригодницький, трилер
Країна: США, Велика Британія, Німеччина



Кінокомпанія: Focus Features, Holleran Company, Sechzehnte Babelsberg Film
Режисер: Джо Райт (Joe Wright)
Актори: Сірша Ронан (Saoirse Ronan), Ерік Бана (Eric Bana), Кейт Бланшет (Cate Blanchett), Том Голландер (Tom Hollander), Олівія Вільямс (Olivia Williams), Джейсон Флемінґ (Jason Flemyng) та інші.

Сюжет:
16-річна Ганна, яку батько виховував, щоб та стала ідеальним убивцею, вирушає з місією по Европі. Її переслідує безжалісний аґент розвідки разом зі своїми помічниками.


Тривалість: 01:51:02
Якість: 1080p

Відео:
кодек:
розмір кадру: 1920x800
бітрейт: 9000 Кбіт/с

Аудіо #1:
мова: українська
переклад: багатоголосий закадровий [НТН][CINE+]
кодек: 2.0
бітрейт: 192 Кбіт/с

Аудіо #2:
мова: українська
переклад: багатоголосий закадровий [ICTV]
кодек: 2.0
бітрейт: 192 Кбіт/с

Аудіо #3:
мова: українська
переклад: двоголосий закадровий [2+2]
кодек: 2.0
бітрейт: 192 Кбіт/с

Аудіо #4:
мова: англійська
переклад: оригінал
кодек: 5.1
бітрейт: 1509 Кбіт/с

Субтитри #1:
мова: українська (повні) (також можна завантажити окремим файлом)
тип: програмні (м'які)
формат: *.srt

Субтитри #2:
мова: англійська (повні) (також можна завантажити окремим файлом)
тип: програмні (м'які)
формат: *.srt

Info
General
Unique ID : 119410000157721218486722414482090538733 (0x59D5878D11DCF801C27FE8C4EEB2B6ED)
Format :
Format version : Version 4
File size : 8.60 GiB
Duration : 1 h 51 min
Overall bit rate : 11.1 Mb/s
Movie name : Hanna (2011) 1080p [UrkEng][SubUrkEng] [Hurtom]
Encoded date : UTC 2020-04-07 02:28:37
Writing application : v45.0.0 ('Heaven in Pennies') 64-bit
Writing library : libebml v1.3.10 + v1.5.2

Video
ID : 1
Format : AVC
Format/Info : Advanced Video Codec
Format profile : [email protected]
Format settings : CABAC / 4 Ref Frames
Format settings, CABAC : Yes
Format settings, Reference fra : 4 frames
Codec ID : V_MPEG4/ISO/AVC
Duration : 1 h 51 min
Bit rate : 9 000 kb/s
Width : 1 920 pixels
Height : 800 pixels
Display aspect ratio : 2.40:1
Frame rate mode : Constant
Frame rate : 23.976 (24000/1001) FPS
Color space : YUV
Chroma subsampling : 4:2:0
Bit depth : 8 bits
Scan type : Progressive
Bits/(Pixel*Frame) : 0.244
Stream size : 6.98 GiB (81%)
Title : 1080p @ 9 Мбіт/с
Writing library : core 142 r2479 dd79a61
Encoding settings : cabac=1 / ref=5 / deblock=1:-1:-1 / analyse=0x3:0x133 / me=umh / subme=10 / psy=1 / psy_rd=1.00:0.00 / mixed_ref=1 / me_range=64 / chroma_me=1 / trellis=2 / 8x8dct=1 / cqm=0 / deadzone=21,11 / fast_pskip=1 / chroma_qp_offset=-2 / threads=12 / lookahead_threads=2 / sliced_threads=0 / nr=0 / decimate=1 / interlaced=0 / bluray_compat=0 / constrained_intra=0 / bframes=7 / b_pyramid=1 / b_adapt=2 / b_bias=0 / direct=1 / weightb=1 / open_gop=0 / weightp=2 / keyint=240 / keyint_min=24 / scenecut=40 / intra_refresh=0 / rc_lookahead=50 / rc=2pass / mbtree=1 / bitrate=9000 / ratetol=1.0 / qcomp=0.60 / qpmin=0 / qpmax=69 / qpstep=4 / cplxblur=20.0 / qblur=0.5 / vbv_maxrate=62500 / vbv_bufsize=78125 / nal_hrd=none / filler=0 / ip_ratio=1.40 / aq=1:1.00
Language : English
Default : Yes
Forced : No
Color range : Limited
Color primaries : BT.709
Transfer characteristics : BT.709
Matrix coefficients : BT.709

Audio #1
ID : 2
Format : AC-3
Format/Info : Audio Coding 3
Commercial name : Dolby Digital
Codec ID : A_AC3
Duration : 1 h 51 min
Bit rate mode : Constant
Bit rate : 192 kb/s
Channel(s) : 2 channels
Channel layout : L R
Sampling rate : 48.0 kHz
Frame rate : 31.250 FPS (1536 SPF)
Bit depth : 16 bits
Compression mode : Lossy
Delay relative to video : -83 ms
Stream size : 152 MiB (2%)
Title : Багатоголосий закадровий [НТН] 2.0 @ 192 Кбіт/с
Language : Ukrainian
Service kind : Complete Main
Default : Yes
Forced : No

Audio #2
ID : 3
Format : AC-3
Format/Info : Audio Coding 3
Commercial name : Dolby Digital
Codec ID : A_AC3
Duration : 1 h 51 min
Bit rate mode : Constant
Bit rate : 192 kb/s
Channel(s) : 2 channels
Channel layout : L R
Sampling rate : 48.0 kHz
Frame rate : 31.250 FPS (1536 SPF)
Bit depth : 16 bits
Compression mode : Lossy
Delay relative to video : -83 ms
Stream size : 152 MiB (2%)
Title : Багатоголосий закадровий [ICTV] 2.0 @ 192 Кбіт/с
Language : Ukrainian
Service kind : Complete Main
Default : No
Forced : No

Audio #3
ID : 4
Format : AC-3
Format/Info : Audio Coding 3
Commercial name : Dolby Digital
Codec ID : A_AC3
Duration : 1 h 51 min
Bit rate mode : Constant
Bit rate : 192 kb/s
Channel(s) : 2 channels
Channel layout : L R
Sampling rate : 48.0 kHz
Frame rate : 31.250 FPS (1536 SPF)
Bit depth : 16 bits
Compression mode : Lossy
Delay relative to video : -83 ms
Stream size : 152 MiB (2%)
Title : Двоголосий закадровий [2+2] 2.0 @ 192 Кбіт/с
Language : Ukrainian
Service kind : Complete Main
Default : No
Forced : No

Audio #4
ID : 5
Format :
Format/Info : Digital Theater Systems
Codec ID : A_DTS
Duration : 1 h 51 min
Bit rate mode : Constant
Bit rate : 1 509 kb/s
Channel(s) : 6 channels
Channel layout : C L R Ls Rs LFE
Sampling rate : 48.0 kHz
Frame rate : 93.750 FPS (512 SPF)
Bit depth : 24 bits
Compression mode : Lossy
Delay relative to video : -83 ms
Stream size : 1.17 GiB (14%)
Title : [Оригінал] 5.1 @ 1509 Кбіт/с
Language : English
Default : No
Forced : No

Text #1
ID : 6
Format : UTF-8
Codec ID : S_TEXT/UTF8
Codec ID/Info : UTF-8 Plain Text
Duration : 1 h 41 min
Bit rate : 47 b/s
Count of elements : 768
Stream size : 35.4 KiB (0%)
Title : Повні
Language : Ukrainian
Default : Yes
Forced : No

Text #2
ID : 7
Format : UTF-8
Codec ID : S_TEXT/UTF8
Codec ID/Info : UTF-8 Plain Text
Duration : 1 h 49 min
Bit rate : 30 b/s
Count of elements : 951
Stream size : 24.4 KiB (0%)
Title : Full
Language : English
Default : No
Forced : No

Menu
00:00:00.000 : :Chapter 1
00:05:22.071 : :Chapter 2
00:10:54.737 : :Chapter 3
00:15:08.991 : :Chapter 4
00:20:00.282 : :Chapter 5
00:24:30.886 : :Chapter 6
00:30:07.889 : :Chapter 7
00:35:18.199 : :Chapter 8
00:41:34.909 : :Chapter 9
00:46:17.191 : :Chapter 10
00:50:06.420 : :Chapter 11
00:55:36.082 : :Chapter 12
01:00:43.723 : :Chapter 13
01:04:27.947 : :Chapter 14
01:11:48.053 : :Chapter 15
01:19:58.877 : :Chapter 16
01:24:50.835 : :Chapter 17
01:29:35.453 : :Chapter 18
01:36:46.217 : :Chapter 19
01:43:25.282 : :Chapter 20
Скріншоти







Джерело: & thepiratebay
Українські доріжки:
За доріжку від НТН дякую п.: xslim, Sando7, Arsenfpu
За доріжку від ICTV дякую п.: Bohdan237, Arsenfpu
За доріжку від 2+2 дякую п.: karvai0, xslim
За українські субтитри дякую п. Віктор'у


 Трекер:    Зареєстрований   

Завантажити / скачати фільм українською



відео для новачків



 Зареєстрований:   2020-04-07 05:46
 Розмір:   8.6 GB 
 Оцінка фільму:   9.2/10 (Голосів: 6)
   
igor911 
Модератор відео


З нами з: 18.01.08
Востаннє: 29.09.20
Повідомлень: 15007

2020-04-06 23:46  
Дуже бажано також додати решту (двоє) українських озвучення - НТН (Cine+) та ICTV. Створюючи релізи в розділі HD, бажано максимально комплектувати їх наявними українськими озвученнями, субтитрами.
https://toloka.to/t95660 https://toloka.to/t84862

Додано через 2 хвилини 8 секунд:

В назві написано:
Ханна / Ганна / Hanna (2011) 1080p Ukr/Eng | Sub Ukr/Eng

треба виправити на "Ханна (Ганна). Досконала (ідеальна) зброя (2011) 1080p Ukr/Eng | Sub Ukr/Eng" - полегшить пошук за назвою, з якою фільм був в українському прокаті.

antik_2008 
Релізер і модератор відео


З нами з: 20.10.08
Востаннє: 29.09.20
Повідомлень: 4166

2020-04-06 23:48  
https://fex.net/uk/s/xytb7cb

Anonymous 







2020-04-07 05:52  
antik_2008
Сяп за посилання на всі аудіодоріжки

igor911
Все зробив і посилання на скачку субтитрів вставив

Перезалив роздачу, додав всі існуючі доріжки, перекачайте будь ласка роздачу

Ваш часовий пояс: GMT + 2 Години

Нова тема   Відповісти