Перехресний вогонь / Bad Country (2014) AVC Ukr/Eng | sub Ukr/Eng

Нові коментарі

Нова тема   Відповісти
Автор Повідомлення
Arsenfpu 
Відео Гуртом - фільмокрай
Відео Гуртом - фільмокрай


З нами з: 30.04.09
Востаннє: 03.07.20
Повідомлень: 7031

2020-04-06 18:57  
Перехресний вогонь / Bad Country (2014) AVC Ukr/Eng | sub Ukr/Eng

Перехресний вогонь / Bad Country (2014) AVC Ukr/Eng | sub Ukr/Eng


Жанр: пригодницький, кримінальний, драма
Країна: США



Кінокомпанія: CB Productions, ANA Media, Mandalay Vision
Режисер: Кріс Брінкер
Актори: Віллем Дефо, Метт Діллон, Емі Смарт, Том Беренджер, Кевін Чепмен, Крістофер Денхема, Білл Дьюк, Кріс Маркетт, Дон Йессо, Ніл МакДона, Алекс Соловіц, Джон Едвард Лі

Сюжет:
Коли Бад Картер, детектив поліції міста Батон-Руж, ловить на гарячому найманого вбивцю Джессі Вейленда, той стає інформатором Бада і здає йому наймогутніше злочинне угруповання американського півдня. Так що коли мафія починає полювання на Картера, а заодно і на "стукача" Вейленда, дивній парочці доводиться об'єднатися, щоб протистояти злочинному синдикату і його лідерові, який замовив хлопців ...


Тривалість: 01:44:22
Якість:
Відео:
кодек:
розмір кадру: 1 024 х 576
бітрейт: 2 499 кб/с

Аудіо # 1:
мова: українська
переклад: багатоголосий закадровий
кодек: 2.0
бітрейт: 192 кб/с

Аудіо # 2:
мова: англійська
переклад: оригінал
кодек: 2.0
бітрейт: 192 кб/с

Субтитри:
мова: українська
тип: програмні (м'які)
формат: *.srt

Субтитри:
мова: англійська
тип: програмні (м'які)
формат: *.srt
Скріншоти














Про файл
General
Unique ID : 196814356329873816554611251568559322787 (0x941110F4B7CEE221721EA1FB31C8F6A3)
Complete name : C:\Bad Country (2014) [Ukr,Eng] AVC [Hurtom].
Format :
Format version : Version 4 / Version 2
File size : 2.10 GiB
Duration : 1 h 44 min
Overall bit rate : 2 884 kb/s
Movie name : Перехресний вогонь / Bad Country (2014)
Encoded date : UTC 2020-04-09 19:34:28
Writing application : v21.0.0 ('Tardigrades Will Inherit The Earth') 32-bit
Writing library : libebml v1.3.5 + v1.4.8
Cover : Yes
Attachments : cover.jpg

Video
ID : 1
Format : AVC
Format/Info : Advanced Video Codec
Format profile : [email protected]
Format settings, CABAC : Yes
Format settings, ReFrames : 4 frames
Codec ID : V_MPEG4/ISO/AVC
Duration : 1 h 44 min
Bit rate : 2 499 kb/s
Width : 1 024 pixels
Height : 576 pixels
Display aspect ratio : 16:9
Frame rate mode : Constant
Frame rate : 23.976 (24000/1001) FPS
Color space : YUV
Chroma subsampling : 4:2:0
Bit depth : 8 bits
Scan type : Progressive
Bits/(Pixel*Frame) : 0.177
Stream size : 1.82 GiB (87%)
Writing library : core 157 r2935 545de2f
Encoding settings : cabac=1 / ref=3 / deblock=1:-1:-1 / analyse=0x3:0x113 / me=hex / subme=7 / psy=1 / psy_rd=1.00:0.15 / mixed_ref=1 / me_range=16 / chroma_me=1 / trellis=1 / 8x8dct=1 / cqm=0 / deadzone=21,11 / fast_pskip=1 / chroma_qp_offset=-3 / threads=12 / lookahead_threads=2 / sliced_threads=0 / nr=0 / decimate=1 / interlaced=0 / bluray_compat=0 / constrained_intra=0 / bframes=3 / b_pyramid=2 / b_adapt=1 / b_bias=0 / direct=1 / weightb=1 / open_gop=0 / weightp=2 / keyint=240 / keyint_min=23 / scenecut=40 / intra_refresh=0 / rc_lookahead=40 / rc=2pass / mbtree=1 / bitrate=2499 / ratetol=1.0 / qcomp=0.60 / qpmin=0 / qpmax=69 / qpstep=4 / cplxblur=20.0 / qblur=0.5 / ip_ratio=1.40 / aq=1:1.00
Default : Yes
Forced : No

Audio #1
ID : 2
Format : AC-3
Format/Info : Audio Coding 3
Mode extension : CM (complete main)
Format settings, Endianness : Big
Codec ID : A_AC3
Duration : 1 h 44 min
Bit rate mode : Constant
Bit rate : 192 kb/s
Channel(s) : 2 channels
Channel positions : Front: L R
Sampling rate : 48.0 kHz
Frame rate : 31.250 FPS (1536 spf)
Compression mode : Lossy
Stream size : 143 MiB (7%)
Title : ICTV
Language : Ukrainian
Default : Yes
Forced : Yes

Audio #2
ID : 3
Format : AC-3
Format/Info : Audio Coding 3
Mode extension : CM (complete main)
Format settings, Endianness : Big
Codec ID : A_AC3
Duration : 1 h 44 min
Bit rate mode : Constant
Bit rate : 192 kb/s
Channel(s) : 2 channels
Channel positions : Front: L R
Sampling rate : 48.0 kHz
Frame rate : 31.250 FPS (1536 spf)
Compression mode : Lossy
Stream size : 143 MiB (7%)
Language : English
Default : No
Forced : No

Text #1
ID : 4
Format : UTF-8
Codec ID : S_TEXT/UTF8
Codec ID/Info : UTF-8 Plain Text
Duration : 1 h 36 min
Bit rate : 84 b/s
Count of elements : 1112
Stream size : 60.0 KiB (0%)
Language : Ukrainian
Default : Yes
Forced : No

Text #2
ID : 5
Format : UTF-8
Codec ID : S_TEXT/UTF8
Codec ID/Info : UTF-8 Plain Text
Duration : 1 h 43 min
Bit rate : 58 b/s
Count of elements : 1356
Stream size : 44.1 KiB (0%)
Language : English
Default : No
Forced : No
Джерело:
Особиста оцінка: не дивився


 Трекер:    Зареєстрований   

Завантажити / скачати фільм українською



відео для новачків



 Зареєстрований:   2020-04-09 23:33
 Розмір:   2.1 GB 
 Оцінка фільму:   8.9/10 (Голосів: 11)
   
Інші релізи
bot 
робот


З нами з: 30.09.07
Востаннє: 26.05.05
Повідомлень: 24931

2020-04-09 23:32  
Тему перенесено з Анонси релізів до форуму Фільми


Arsenfpu

007qwe 
Новенький


З нами з: 24.11.12
Востаннє: 03.07.20
Повідомлень: 12

2020-04-11 00:39  
не подужав до кінця
Ваш часовий пояс: GMT + 2 Години

Нова тема   Відповісти