Ну, постривай! (Сезон 1, Випуски 1-16) / Ну, погоди! (Выпуски 1-16) (1969-1986) 720p Ukr/Rus

Нові коментарі

Нова тема   Відповісти
Автор Повідомлення
Anonymous 







2020-04-06 15:49  
Ну, постривай! (Сезон 1, Випуски 1-16) / Ну, погоди! (Выпуски 1-16) (1969-1986) 720p Ukr/Rus


Жанр: анімація, дитячий
Країна: СРСР



Кінокомпанія: Союзмультфільм
Режисер: Вячеслав Котьоночкін, Володимир Тарасов, Олексій Котьоночкін
Актори: Анатолій Папанов та Клара Рум'янова

Сюжет:
Історія пригод двох нерозлучних друзів Вовка і Зайця. Бешкетник Вовк, який постійно ходить на межі порушення закону, найбільше в житті хоче зловити веселого і добродушного Зайця. Постійні погоні, сварки і примирення, жарти і чудова музика...


Тривалість: 1 серія: ~ 9 хв (цілком серій: 16)
Перелік серій
Випуск 01 (1969 рік)
Випуск 02 (1970 рік)
Випуск 03 (1971 рік)
Випуск 04 (1971 рік)
Випуск 05 (1972 рік)
Випуск 06 (1973 рік)
Випуск 07 (1973 рік)
Випуск 08 (1974 рік)
Випуск 09 (1976 рік)
Випуск 10 (1976 рік)
Випуск 11 (1977 рік)
Випуск 12 (1978 рік)
Випуск 13 (1980 рік)
Випуск 14 (1984 рік)
Випуск 15 (1985 рік)
Випуск 16 (1986 рік)
Якість:
Відео:
кодек:
розмір кадру: 952x720
бітрейт: 6 677 кб/с

Аудіо # 1:
мова: українська
озвучення: професійне двоголосе закадрове | НТН
кодек: 2.0
бітрейт: 192 кб/с
Інформація про озвучення:
Аудіо # 2:
мова: російська
озвучення: оригінал
кодек: 5.1
бітрейт: 448 кб/с
Info
General
Unique ID : 247134194255988461022138289799621657365 (0xB9EC508311CB77FBA9FFFB8E4B3A4315)
Complete name : D:\Series\Ну, постривай! (1969-1986) 720p [UKR_RUS] [Hurtom]\Випуск 01.
Format :
Format version : Version 2
File size : 502 MiB
Duration : 9 min 34 s
Overall bit rate : 7 321 kb/s
Encoded date : UTC 2020-04-06 10:14:19
Writing application : v3.2.0 ('Beginnings') built on Feb 12 2010 16:46:17
Writing library : libebml v0.7.9 + v0.8.1

Video
ID : 1
Format : AVC
Format/Info : Advanced Video Codec
Format profile : [email protected]
Format settings, CABAC : Yes
Format settings, RefFrames : 9 frames
Codec ID : V_MPEG4/ISO/AVC
Duration : 9 min 34 s
Bit rate : 6 677 kb/s
Width : 952 pixels
Height : 720 pixels
Display aspect ratio : 4:3
Frame rate mode : Constant
Frame rate : 25.000 FPS
Color space : YUV
Chroma subsampling : 4:2:0
Bit depth : 8 bits
Scan type : Progressive
Bits/(Pixel*Frame) : 0.390
Stream size : 448 MiB (89%)
Writing library : core 119 r2106 07efeb4
Encoding settings : cabac=1 / ref=9 / deblock=1:-3:-3 / analyse=0x3:0x133 / me=umh / subme=10 / psy=1 / psy_rd=1.00:0.00 / mixed_ref=1 / me_range=32 / chroma_me=1 / trellis=2 / 8x8dct=1 / cqm=0 / deadzone=21,11 / fast_pskip=1 / chroma_qp_offset=-2 / threads=6 / sliced_threads=0 / nr=0 / decimate=1 / interlaced=0 / bluray_compat=0 / constrained_intra=0 / bframes=6 / b_pyramid=2 / b_adapt=2 / b_bias=0 / direct=3 / weightb=1 / open_gop=0 / weightp=2 / keyint=250 / keyint_min=25 / scenecut=40 / intra_refresh=0 / rc_lookahead=40 / rc=2pass / mbtree=1 / bitrate=6677 / ratetol=1.0 / qcomp=0.60 / qpmin=10 / qpmax=51 / qpstep=4 / cplxblur=20.0 / qblur=0.5 / vbv_maxrate=50000 / vbv_bufsize=50000 / nal_hrd=none / ip_ratio=1.40 / aq=1:1.00
Language : Russian
Default : No
Forced : Yes

Audio #1
ID : 2
Format : AC-3
Format/Info : Audio Coding 3
Format settings, Endianness : Big
Codec ID : A_AC3
Duration : 9 min 34 s
Bit rate mode : Constant
Bit rate : 192 kb/s
Channel(s) : 2 channels
Channel positions : Front: L R
Sampling rate : 48.0 kHz
Frame rate : 31.250 FPS (1536 SPF)
Bit depth : 16 bits
Compression mode : Lossy
Stream size : 13.2 MiB (3%)
Title : [UA-DVO-НТН]
Language : Ukrainian
Service kind : Complete Main
Default : Yes
Forced : Yes

Audio #2
ID : 3
Format : AC-3
Format/Info : Audio Coding 3
Format settings, Endianness : Big
Codec ID : A_AC3
Duration : 9 min 34 s
Bit rate mode : Constant
Bit rate : 448 kb/s
Channel(s) : 6 channels
Channel positions : Front: L C R, Side: L R, LFE
Sampling rate : 48.0 kHz
Frame rate : 31.250 FPS (1536 SPF)
Bit depth : 16 bits
Compression mode : Lossy
Stream size : 30.7 MiB (6%)
Title : Original
Language : Russian
Service kind : Complete Main
Default : No
Forced : No
Скріншоти


Срібний реліз (на рейтинг впливає 50% завантаженого)
 Трекер:    Зареєстрований   

Завантажити / скачати мультфільм українською



відео для новачків



 Зареєстрований:   2020-04-07 10:53
 Розмір:   7.82 GB 
 Оцінка мультсеріалу:   3.6/10 (Голосів: 17)
   
leicheman 
Відео Гуртом - фільмокрай
Відео Гуртом - фільмокрай


З нами з: 03.07.14
Востаннє: 22.04.21
Повідомлень: 6154

2020-04-06 16:38  
Anonymous написано:
закадрове


триндець, можна було б і дубляж зробити. вони ж там на серію два три слова кажуть.

Electroz 
Відео Гуртом - підтримка та поширення
Відео Гуртом - підтримка та поширення


З нами з: 18.09.14
Востаннє: 22.04.21
Повідомлень: 4443

2020-04-06 19:36  
leicheman
якщо не помиляюся, там показували псевдодубляж.

Anonymous 







2020-04-07 10:54  
Торрент оновлено. Додано 10-16 випуски.
Ваш часовий пояс: GMT + 2 Години

Нова тема   Відповісти