Макс Грін і прибульці / Pumpkin Reports (Сезон 1) (2015) 720p

Нові коментарі

Нова тема   Відповісти
Останній раз роздавалося Bimerman (2021-04-22)
Автор Повідомлення
sergiyko.5 
Забанено
Забанено


З нами з: 25.02.16
Востаннє: 29.10.20
Повідомлень: 3648

2020-04-06 13:56  
Макс Грін і прибульці / Pumpkin Reports (Сезон 1) (2015) 720p


Макс Грін і прибульці / Pumpkin Reports (Сезон 1) (2015) 720p

Жанр: Анімаційний мультсеріал
Країна: Іспанія
Кінокомпанія: Motion Pictures, Sample, Young Jump Animation Studio
Режисер: Алексіс Барросо
Актори/ролі озвучують: Шеннон Конлі, Оналеа Джілбертсон, Пьєтро Убальді, Х.Д. Куінн, Ліндсей Шеппард, Ділан Джонс, Метт Бан, Стефані Пем Робертс

Сюжет:
Одинадцятирічний Макс Грін живе безтурботним життям зі своїми батьками. Він самий успішний і популярний в тихому містечку Кукуртауні. В один прекрасний день він виявляє, що Тереза ​​і Голіаф, його прийомні брат і сестра, ніхто інші, як інопланетяни, які прагнуть захопити Землю! Мама і тато не вірять Максу. Вайолет, подружка Макса, Піксель - головний пустун і самий переконаний шукач інопланетян і Саймон Сіллікон - геніальний вчений, який постійно винаходить різні контрзаходи для протистояння інопланетним загарбникам, починають власне розслідування. Чи вдасться їм розкрити всі таємниці загадкової місії прибульців?




Тривалість: 1 серія: 11:02 (цілком серій: 52)

Якість:
Відео: кодек: розмір кадру: 1280 х 720 бітрейт: 2600 кб/с
Аудіо: мова: українська переклад: багатоголосий закадровий кодек: MP2 2.0 бітрейт: 192 кб/с
Озвучення:
Перелік серій
01-52
Про файл:
General
Unique ID : 34307459696971251430089533729861521633 (0x19CF605B65EEFD2D3940283F8FA7D0E1)
Complete name : D:\Documents\Torrents\Rizne\Pumpkin Reports S01 720p \Pumpkin Reports.S01E04.720p..
Format :
Format version : Version 4
File size : 219 MiB
Duration : 11 min 7 s
Overall bit rate : 2 752 kb/s
Encoded date : UTC 2020-03-10 12:32:25
Writing application : v43.0.0 ('The Quartermaster') 64-bit
Writing library : libebml v1.3.10 + v1.5.2

Video
ID : 1
Format : AVC
Format/Info : Advanced Video Codec
Format profile : [email protected]
Format settings : CABAC / 4 Ref Frames
Format settings, CABAC : Yes
Format settings, Reference : 4 frames
Codec ID : V_MPEG4/ISO/AVC
Duration : 11 min 6 s
Bit rate : 2 569 kb/s
Width : 1 280 pixels
Height : 720 pixels
Display aspect ratio : 16:9
Frame rate mode : Constant
Frame rate : 25.000 FPS
Color space : YUV
Chroma subsampling : 4:2:0
Bit depth : 8 bits
Scan type : Progressive
Bits/(Pixel*Frame) : 0.112
Stream size : 203 MiB (93%)
Writing library : core 142
Encoding settings : cabac=1 / ref=3 / deblock=1:0:0 / analyse=0x3:0x113 / me=hex / subme=7 / psy=1 / psy_rd=1.00:0.00 / mixed_ref=1 / me_range=16 / chroma_me=1 / trellis=1 / 8x8dct=1 / cqm=0 / deadzone=21,11 / fast_pskip=1 / chroma_qp_offset=-2 / threads=84 / lookahead_threads=5 / sliced_threads=0 / nr=0 / decimate=1 / interlaced=0 / bluray_compat=0 / constrained_intra=0 / bframes=6 / b_pyramid=2 / b_adapt=1 / b_bias=0 / direct=1 / weightb=1 / open_gop=0 / weightp=2 / keyint=50 / keyint_min=26 / scenecut=0 / intra_refresh=0 / rc_lookahead=40 / rc=2pass / mbtree=1 / bitrate=2569 / ratetol=1.0 / qcomp=0.60 / qpmin=0 / qpmax=69 / qpstep=4 / cplxblur=20.0 / qblur=0.5 / vbv_maxrate=3854 / vbv_bufsize=10279 / nal_hrd=none / filler=0 / ip_ratio=1.40 / aq=1:1.00
Default : Yes
Forced : No

Audio
ID : 2
Format : MPEG Audio
Format version : Version 1
Format profile : Layer 2
Format settings : Joint stereo / Intensity Stereo + MS Stereo
Codec ID : A_MPEG/L2
Codec ID/Hint : MP2
Duration : 11 min 7 s
Bit rate mode : Constant
Bit rate : 192 kb/s
Channel(s) : 2 channels
Sampling rate : 48.0 kHz
Frame rate : 41.667 FPS (1152 SPF)
Compression mode : Lossy
Stream size : 15.3 MiB (7%)
Default : Yes
Forced : No
Скріншоти:


Запис/зведення: xslim


Бронзовий реліз (на рейтинг впливає 75% завантаженого)
 Трекер:    Зареєстрований   

Завантажити / скачати мультфільм українською



відео для новачків



 Зареєстрований:   2020-04-06 13:56
 Розмір:   11.14 GB 
 Оцінка мультсеріалу:   10/10 (Голосів: 3)
   
Ваш часовий пояс: GMT + 2 Години

Нова тема   Відповісти