Килим-літак / Hodja fra Pjort (2018) 1080p Ukr/Dan

Нові коментарі

Нова тема   Відповісти
Автор Повідомлення
sergiyko.5 
Попереджень: 1
Попереджень: 1 


З нами з: 25.02.16
Востаннє: 28.05.20
Повідомлень: 3132

2020-04-06 13:23  
Килим-літак / Hodja fra Pjort (2018) 1080p Ukr/Dan


Килим-літак / Hodja fra Pjort (2018) 1080p Ukr/Dan

Жанр: пригодницький
Країна: Данія



Режисер: Карстен Кілеріх
Ролі озвучують: Ерік Холмі, Туре Ліндхардт, Сьюзі Пауер, Ларс Ранте, Біргітте Рааберг

Сюжет:
Головний герой зростає мрійливим хлопчиком, який хоче побачити світ. Його батько, дивлячись на життя куди більш реалістично, наполягає, щоб син викинув нікчемні думки з голови та вивчився на кравця. Але хлопчик не перестає мріяти про подорожі в далекі краї, та в один прекрасний день зустрічає купця ЕльФазу, який готовий дати йому килим-літак, якщо хлопчик вирушить у велике місто під владою султана, знайде та поверне ЕльФазе його маленьку онуку...


Тривалість: 01:21:03
Якість:

Відео: кодек: Н.264 розмір кадру: 1920 x 808 бітрейт: 6200 кб/с
Аудіо: мова: українська переклад: багатоголосий закадровий кодек: 2.0 бітрейт: 192 кб/с
Аудіо: мова: даньська переклад: оригінал кодек: 5.1 бітрейт: 1509 кб/с
Про файл:
General
Unique ID : 273134574786652155084371537614940808886 (0xCD7BCE3E9D19AD8A87E383FC9AEE26B6)
Complete name : D:\Documents\Torrents\Rizne\Hodja fra Pjort.2018.1080p..Ukr.Dan.
Format :
Format version : Version 4
File size : 4.48 GiB
Duration : 1 h 21 min
Overall bit rate : 7 911 kb/s
Movie name : Hodja fra Pjort 2018 1080p by sergiyko
Encoded date : UTC 2020-04-06 10:01:11
Writing application : v44.0.0 ('Domino') 64-bit
Writing library : libebml v1.3.10 + v1.5.2

Video
ID : 1
Format : AVC
Format/Info : Advanced Video Codec
Format profile : [email protected]
Format settings : CABAC / 5 Ref Frames
Format settings, CABAC : Yes
Format settings, Reference : 5 frames
Codec ID : V_MPEG4/ISO/AVC
Duration : 1 h 21 min
Bit rate : 6 211 kb/s
Width : 1 920 pixels
Height : 808 pixels
Display aspect ratio : 2.40:1
Frame rate mode : Constant
Frame rate : 24.000 FPS
Color space : YUV
Chroma subsampling : 4:2:0
Bit depth : 8 bits
Scan type : Progressive
Bits/(Pixel*Frame) : 0.167
Stream size : 3.51 GiB (78%)
Title : Hodja fra Pjort 2018
Writing library : core 155 r2901 7d0ff22
Encoding settings : cabac=1 / ref=5 / deblock=1:0:0 / analyse=0x3:0x113 / me=umh / subme=8 / psy=1 / psy_rd=1.00:0.00 / mixed_ref=1 / me_range=16 / chroma_me=1 / trellis=1 / 8x8dct=1 / cqm=0 / deadzone=21,11 / fast_pskip=1 / chroma_qp_offset=-2 / threads=24 / lookahead_threads=4 / sliced_threads=0 / nr=0 / decimate=1 / interlaced=0 / bluray_compat=0 / constrained_intra=0 / bframes=3 / b_pyramid=2 / b_adapt=1 / b_bias=0 / direct=3 / weightb=1 / open_gop=0 / weightp=2 / keyint=240 / keyint_min=24 / scenecut=40 / intra_refresh=0 / rc_lookahead=50 / rc=2pass / mbtree=1 / bitrate=6211 / ratetol=1.0 / qcomp=0.60 / qpmin=0 / qpmax=69 / qpstep=4 / cplxblur=20.0 / qblur=0.5 / ip_ratio=1.40 / aq=1:1.00
Language : Danish
Default : Yes
Forced : No

Audio #1
ID : 2
Format : AC-3
Format/Info : Audio Coding 3
Commercial name : Dolby Digital
Codec ID : A_AC3
Duration : 1 h 21 min
Bit rate mode : Constant
Bit rate : 192 kb/s
Channel(s) : 2 channels
Channel layout : L R
Sampling rate : 48.0 kHz
Frame rate : 31.250 FPS (1536 SPF)
Compression mode : Lossy
Stream size : 111 MiB (2%)
Title : MOV | Новий канал
Language : Ukrainian
Service kind : Complete Main
Default : Yes
Forced : Yes

Audio #2
ID : 3
Format :
Format/Info : Digital Theater Systems
Codec ID : A_DTS
Duration : 1 h 21 min
Bit rate mode : Constant
Bit rate : 1 509 kb/s
Channel(s) : 6 channels
Channel layout : C L R Ls Rs LFE
Sampling rate : 48.0 kHz
Frame rate : 93.750 FPS (512 SPF)
Bit depth : 24 bits
Compression mode : Lossy
Stream size : 875 MiB (19%)
Title : Original
Language : Danish
Default : No
Forced : No

Menu
00:00:00.000 : da:00:00:00.000
00:09:44.083 : da:00:09:44.083
00:20:59.750 : da:00:20:59.750
00:30:19.375 : da:00:30:19.375
00:40:13.000 : da:00:40:13.000
00:52:01.875 : da:00:52:01.875
01:02:54.750 : da:01:02:54.750
01:11:14.667 : da:01:11:14.667
Скріншоти:


Запис: tilda4334, xslim
Зведення: sergiyko


 Трекер:    Зареєстрований   

Завантажити / скачати мультфільм українською



відео для новачків



 Зареєстрований:   2020-04-06 13:23
 Розмір:   4.48 GB 
 Оцінка мультфільму:   9.7/10 (Голосів: 7)
   
Інші релізи
   Килим-літак / Hodja fra Pjort (2018) Arsenfpu  6 / 0   1.32 GB   2020-04-23 20:55 
   Килим-літак / Hodja fra Pjort (2018) 720p Ukr/Dan sergiyko.5  9 / 0   2.57 GB   2020-04-06 02:37 
   Килим-літак / Hodja fra Pjort (2018) AVC Ukr/Dan sergiyko.5  23 / 0   1.84 GB   2020-04-06 02:33 
Ваш часовий пояс: GMT + 2 Години

Нова тема   Відповісти