Килим-літак / Hodja fra Pjort (2018) AVC Ukr/Dan

Нові коментарі

Нова тема   Відповісти
Автор Повідомлення
sergiyko.5 
Попереджень: 1
Попереджень: 1 


З нами з: 25.02.16
Востаннє: 29.05.20
Повідомлень: 3132

2020-04-06 02:33  
Килим-літак / Hodja fra Pjort (2018) AVC Ukr/Dan


Килим-літак / Hodja fra Pjort (2018) AVC Ukr/Dan

Жанр: пригоди
Країна: Данія
Режисер: Карстен Кілеріх

Ролі озвучують: Ерік Холмі, Туре Ліндхардт, Сьюзі Пауер, Ларс Ранте, Біргітте Рааберг

Сюжет:
Головний герой зростає мрійливим хлопчиком, який хоче побачити світ. Його батько, дивлячись на життя куди більш реалістично, наполягає, щоб син викинув нікчемні думки з голови та вивчився на кравця. Але хлопчик не перестає мріяти про подорожі в далекі краї, та в один прекрасний день зустрічає купця ЕльФазу, який готовий дати йому килим-літак, якщо хлопчик вирушить у велике місто під владою султана, знайде та поверне ЕльФазе його маленьку онуку...




Тривалість: 01:21:03
Якість:

Відео: кодек: Н.264 розмір кадру: 1136 x 476 бітрейт: 2600 кб/с
Аудіо: мова: українська переклад: багатоголосий закадровий кодек: 2.0 бітрейт: 192 кб/с
Аудіо: мова: даньська переклад: оригінал кодек: 5.1 бітрейт: 448 кб/с
Про файл:
General
Unique ID : 334970934032132492662860921271094527691 (0xFC010E23E49F2E03A73F39BDEB42C6CB)
Complete name : D:\Documents\Torrents\Rizne\Hodja fra Pjort.2018..Ukr.Dan.
Format :
Format version : Version 4
File size : 1.84 GiB
Duration : 1 h 21 min
Overall bit rate : 3 252 kb/s
Movie name : Hodja fra Pjort 2018 by sergiyko
Encoded date : UTC 2020-04-05 23:26:48
Writing application : v44.0.0 ('Domino') 64-bit
Writing library : libebml v1.3.10 + v1.5.2

Video
ID : 1
Format : AVC
Format/Info : Advanced Video Codec
Format profile : [email protected]
Format settings : CABAC / 11 Ref Frames
Format settings, CABAC : Yes
Format settings, Reference : 11 frames
Codec ID : V_MPEG4/ISO/AVC
Duration : 1 h 21 min
Bit rate : 2 610 kb/s
Width : 1 136 pixels
Height : 476 pixels
Display aspect ratio : 2.40:1
Frame rate mode : Constant
Frame rate : 24.000 FPS
Color space : YUV
Chroma subsampling : 4:2:0
Bit depth : 8 bits
Scan type : Progressive
Bits/(Pixel*Frame) : 0.201
Stream size : 1.48 GiB (80%)
Title : Hodja fra Pjort 2018
Writing library : core 152 r2851kMod ba24899
Encoding settings : cabac=1 / ref=11 / deblock=1:-3:-2 / analyse=0x3:0x133 / me=umh / subme=11 / psy=1 / fade_compensate=0.00 / psy_rd=1.00:0.05 / mixed_ref=1 / me_range=48 / chroma_me=1 / trellis=2 / 8x8dct=1 / cqm=0 / deadzone=21,11 / fast_pskip=0 / chroma_qp_offset=-3 / threads=12 / lookahead_threads=3 / sliced_threads=0 / nr=0 / decimate=1 / interlaced=0 / bluray_compat=0 / constrained_intra=0 / bframes=10 / b_pyramid=2 / b_adapt=2 / b_bias=0 / direct=3 / weightb=1 / open_gop=0 / weightp=2 / keyint=250 / keyint_min=23 / scenecut=40 / intra_refresh=0 / rc_lookahead=60 / rc=crf / mbtree=0 / crf=16.4000 / qcomp=0.60 / qpmin=0 / qpmax=69 / qpstep=4 / vbv_maxrate=50000 / vbv_bufsize=62500 / crf_max=0.0 / nal_hrd=none / filler=0 / ip_ratio=1.40 / pb_ratio=1.30 / aq=3:0.90
Language : Danish
Default : Yes
Forced : No

Audio #1
ID : 2
Format : AC-3
Format/Info : Audio Coding 3
Commercial name : Dolby Digital
Codec ID : A_AC3
Duration : 1 h 21 min
Bit rate mode : Constant
Bit rate : 192 kb/s
Channel(s) : 2 channels
Channel layout : L R
Sampling rate : 48.0 kHz
Frame rate : 31.250 FPS (1536 SPF)
Compression mode : Lossy
Stream size : 111 MiB (6%)
Title : MOV | Новий канал
Language : Ukrainian
Service kind : Complete Main
Default : Yes
Forced : Yes

Audio #2
ID : 3
Format : AC-3
Format/Info : Audio Coding 3
Commercial name : Dolby Digital
Codec ID : A_AC3
Duration : 1 h 21 min
Bit rate mode : Constant
Bit rate : 448 kb/s
Channel(s) : 6 channels
Channel layout : L R C LFE Ls Rs
Sampling rate : 48.0 kHz
Frame rate : 31.250 FPS (1536 SPF)
Compression mode : Lossy
Stream size : 260 MiB (14%)
Title : Original
Language : Danish
Service kind : Complete Main
Default : No
Forced : No

Menu
00:00:00.000 : :00:00:00.000
00:09:44.083 : :00:09:44.083
00:20:59.750 : :00:20:59.750
00:30:19.375 : :00:30:19.375
00:40:13.000 : :00:40:13.000
00:52:01.875 : :00:52:01.875
01:02:54.750 : :01:02:54.750
01:11:14.667 : :01:11:14.667
Скріншоти:


Запис: tilda4334, xslim
Зведення: sergiyko


 Трекер:    Зареєстрований   

Завантажити / скачати мультфільм українською



відео для новачків



 Зареєстрований:   2020-04-06 02:33
 Розмір:   1.84 GB 
 Оцінка мультфільму:   8.9/10 (Голосів: 16)
   
Інші релізи
   Килим-літак / Hodja fra Pjort (2018) Arsenfpu  4 / 0   1.32 GB   2020-04-23 20:55 
   Килим-літак / Hodja fra Pjort (2018) 1080p Ukr/Dan sergiyko.5  7 / 0   4.48 GB   2020-04-06 13:23 
   Килим-літак / Hodja fra Pjort (2018) 720p Ukr/Dan sergiyko.5  8 / 0   2.57 GB   2020-04-06 02:37 
Ваш часовий пояс: GMT + 2 Години

Нова тема   Відповісти