Коли ми зустрілися / Jab We Met / जब वी मेट (2007) 720p Ukr/Hin | Sub Eng

Нові коментарі

Нова тема   Відповісти
Автор Повідомлення
Anonymous 







2020-04-06 01:18  
Коли ми зустрілися / Jab We Met / जब वी मेट (2007) 720p Ukr/Hin | Sub Eng



Жанр: драма, романтичний, комедія, музичний.
Країна: Індія



Кінокомпанія: Shree Ashtavinayak Cine Vision
Режисер: Імтіаз Алі
Актори: Шахід Капур, Карина Капур, Дара Сінх, Тарун Арора, Кіран Джунея

Сюжет:
Адітья молодий бізнесмен якому не щастить по- життю. Рік тому помер його батько і компанія яка дісталася в спадок від тата переживає не найкращі часи. А на додачу до цього його кохана виходить заміж за іншого. І тут вже Адітья не витримує, він кидає усе і сідає у перший поїзд в якому зустрічає життєрадісну і красиву дівчину через яку він потрапляє у кумедні і трошки небезпечні пригоди.


Тривалість: 02:23:38
Якість:
Відео:
кодек: Н.264
розмір кадру: 1280 x 528
бітрейт: 5028 кб/с

Аудіо # 1:
мова: українська
переклад: багатоголосий закадровий | KIT
кодек: 2.0
бітрейт: 224 кб/с

Аудіо # 2:
мова: гінді
переклад: оригінал
кодек: 5.1
бітрейт: 640 кб/с

Субтитри:
мова: англійська
тип: програмні (м'які)
формат: *.srt
Info
Video
ID : 1
Format : AVC
Format/Info : Advanced Video Codec
Format profile : [email protected]
Format settings : CABAC / 5 Ref Frames
Format settings, CABAC : Yes
Format settings, Reference : 5 frames
Codec ID : V_MPEG4/ISO/AVC
Duration : 2 h 23 min
Bit rate : 5 028 kb/s
Width : 1 280 pixels
Height : 528 pixels
Display aspect ratio : 2.40:1
Frame rate mode : Constant
Frame rate : 24.000 FPS
Color space : YUV
Chroma subsampling : 4:2:0
Bit depth : 8 bits
Scan type : Progressive
Bits/(Pixel*Frame) : 0.310
Stream size : 5.04 GiB (85%)
Writing library : core 104 r1680 1a6fd47
Encoding settings : cabac=1 / ref=5 / deblock=1:0:0 / analyse=0x3:0x133 / me=umh / subme=7 / psy=1 / psy_rd=1.00:0.00 / mixed_ref=1 / me_range=16 / chroma_me=1 / trellis=1 / 8x8dct=1 / cqm=0 / deadzone=21,11 / fast_pskip=1 / chroma_qp_offset=-2 / threads=12 / sliced_threads=0 / nr=0 / decimate=1 / interlaced=0 / constrained_intra=0 / bframes=3 / b_pyramid=2 / b_adapt=1 / b_bias=0 / direct=1 / weightb=1 / open_gop=0 / weightp=2 / keyint=250 / keyint_min=23 / scenecut=40 / intra_refresh=0 / rc=2pass / mbtree=0 / bitrate=5028 / ratetol=1.0 / qcomp=0.60 / qpmin=10 / qpmax=51 / qpstep=4 / cplxblur=20.0 / qblur=0.5 / ip_ratio=1.40 / pb_ratio=1.30 / aq=1:1.00
Language : Hindi
Default : Yes
Forced : No

Audio #1
ID : 2
Format : AC-3
Format/Info : Audio Coding 3
Commercial name : Dolby Digital
Codec ID : A_AC3
Duration : 2 h 23 min
Bit rate mode : Constant
Bit rate : 224 kb/s
Channel(s) : 2 channels
Channel layout : L R
Sampling rate : 48.0 kHz
Frame rate : 31.250 FPS (1536 SPF)
Compression mode : Lossy
Stream size : 230 MiB (4%)
Title : MVO - KIT
Language : Ukrainian
Service kind : Complete Main
Default : Yes
Forced : No

Audio #2
ID : 3
Format : AC-3
Format/Info : Audio Coding 3
Commercial name : Dolby Digital
Codec ID : A_AC3
Duration : 2 h 23 min
Bit rate mode : Constant
Bit rate : 640 kb/s
Channel(s) : 6 channels
Channel layout : L R C LFE Ls Rs
Sampling rate : 48.0 kHz
Frame rate : 31.250 FPS (1536 SPF)
Compression mode : Lossy
Stream size : 658 MiB (11%)
Language : Hindi
Service kind : Complete Main
Default : No
Forced : No

Text
ID : 4
Format : UTF-8
Codec ID : S_TEXT/UTF8
Codec ID/Info : UTF-8 Plain Text
Duration : 2 h 21 min
Bit rate : 63 b/s
Count of elements : 1582
Stream size : 65.9 KiB (0%)
Language : English
Default : No
Forced : No
Скріншоти



















Джерело:
Особиста оцінка: 8 - мені сподобалося


 Трекер:    Зареєстрований   

Завантажити / скачати фільм українською



відео для новачків



 Зареєстрований:   2020-04-06 01:18
 Розмір:   5.91 GB 
 Оцінка фільму:   10/10 (Голосів: 5)
   
Інші релізи
Ваш часовий пояс: GMT + 2 Години

Нова тема   Відповісти