Поза Грою / Шлях Назад / The Way Back (2020) 1080p H.265 Ukr/Eng | Sub Eng

Нові коментарі

Нова тема   Відповісти
Автор Повідомлення
Anonymous 







2020-04-05 23:20  
Поза Грою / Шлях Назад / The Way Back (2020) 1080p H.265 Ukr/Eng | Sub Eng

Поза Грою / Шлях Назад / The Way Back (2020) 1080p H.265 Ukr/Eng | Sub Eng


Жанр: драма, спорт
Країна: США
Кінокомпанія: Warner Bros., PictSpyglass Media Group, BRON Studios, Mayhem Pictures Pearl Street Films
Режисер: Ґевін О'Коннор
Актори: Бен Аффлек, Ел Мадріґаль, Яніна Ґаванкар, Мішель Воткінс, Брендон Вілсон та інші

Сюжет:
Від режисера фільмів "Воїн" та "Аудитор". Джек Каннінгем пережив трагічну втрату, тепер він на дні життя. Йому пропонують стати тренером місцевої шкільної команди аутсайдерів з баскетболу, за яку Джек сам колись грав. Нове заняття допомагає йому знайти сенс життя, та надає шанс перемогти внутрішніх демонів, та пробачити себе за помилки минулого.

Тривалість: 01:48:22
Якість:

Відео:
кодек: H.265 (HEVC)
розмір кадру: 1920 x 800
бітрейт: 5 163 кб/с
бітова глибина: 10 біт

Увага! Перед завантаженням переконайтесь, що ваш пристрій відтворення (та/або ПЗ) підтримує H.265 (HEVC)

Аудіо # 1:
мова: українська
переклад: двоголосий закадровий | Людмила Швець та Burton Jey
кодек: AC-3 5.1
бітрейт: 384 кб/с

Аудіо # 2:
мова: англійська
переклад: оригінал
кодек: E-AC-3 5.1
бітрейт: 640 кб/с

Субтитри # 1: (Full)
мова: англійська
тип: програмні (м'які)
формат: *.srt


Info
Код:
General
Unique ID                                : 141895191777462253191196974917754154625 (0x6AC00516E9CA8FF882A14B7C4021EE81)
Complete name                            : The Way Back (2020) 1080p H.265 [UKR_ENG] [Hurtom].
Format                                   :
Format version                           : Version 4
File size                                : 4.69 GiB
Duration                                 : 1 h 48 min
Overall bit rate                         : 6 192 kb/s
Movie name                               : Поза Грою / Шлях Назад / The Way Back (2020)
Encoded date                             : UTC 2020-04-05 20:05:53
Writing application                      : v20.0.0 ('I Am The Sun') 64-bit
Writing library                          : libebml v1.3.5 + v1.4.8
Cover                                    : Yes
Attachments                              : Cover.jpg

Video
ID                                       : 1
Format                                   : HEVC
Format/Info                              : High Efficiency Video Coding
Format profile                           : Main [email protected]@Main
Codec ID                                 : V_MPEGH/ISO/HEVC
Duration                                 : 1 h 48 min
Bit rate                                 : 5 163 kb/s
Width                                    : 1 920 pixels
Height                                   : 800 pixels
Display aspect ratio                     : 2.40:1
Frame rate mode                          : Constant
Frame rate                               : 23.976 (24000/1001) FPS
Color space                              : YUV
Chroma subsampling                       : 4:2:0
Bit depth                                : 10 bits
Bits/(Pixel*Frame)                       : 0.140
Stream size                              : 3.91 GiB (83%)
Title                                    : Поза Грою / Шлях Назад / The Way Back (2020)
Writing library                          : x265 3.2.1+1-b5c86a64bbbe:[Linux][GCC 9.2.1][64 bit] 10bit
Encoding settings                        : cpuid=1111039 / frame-threads=2 / wpp / no-pmode / no-pme / no-psnr / no-ssim / log-level=2 / input-csp=1 / input-res=1920x800 / interlace=0 / total-frames=0 / level-idc=0 / high-tier=1 / uhd-bd=0 / ref=4 / no-allow-non-conformance / no-repeat-headers / annexb / no-aud / no-hrd / info / hash=0 / no-temporal-layers / open-gop / min-keyint=23 / keyint=250 / gop-lookahead=0 / bframes=8 / b-adapt=2 / b-pyramid / bframe-bias=0 / rc-lookahead=80 / lookahead-slices=4 / scenecut=40 / radl=0 / no-splice / no-intra-refresh / ctu=64 / min-cu-size=8 / no-rect / no-amp / max-tu-size=32 / tu-inter-depth=1 / tu-intra-depth=1 / limit-tu=0 / rdoq-level=2 / dynamic-rd=0.00 / no-ssim-rd / signhide / no-tskip / nr-intra=0 / nr-inter=0 / no-constrained-intra / no-strong-intra-smoothing / max-merge=3 / limit-refs=3 / limit-modes / me=3 / subme=5 / merange=57 / temporal-mvp / no-hme / weightp / no-weightb / no-analyze-src-pics / deblock=0:0 / sao / no-sao-non-deblock / rd=4 / selective-sao=4 / no-early-skip / rskip / no-fast-intra / no-tskip-fast / no-cu-lossless / no-b-intra / no-splitrd-skip / rdpenalty=0 / psy-rd=1.30 / psy-rdoq=2.00 / no-rd-refine / no-lossless / cbqpoffs=0 / crqpoffs=0 / rc=crf / crf=20.0 / qcomp=0.60 / qpstep=4 / stats-write=0 / stats-read=0 / ipratio=1.40 / pbratio=1.30 / aq-mode=4 / aq-strength=1.10 / cutree / zone-count=0 / no-strict-cbr / qg-size=32 / no-rc-grain / qpmax=69 / qpmin=0 / no-const-vbv / sar=1 / overscan=0 / videoformat=5 / range=0 / colorprim=2 / transfer=2 / colormatrix=2 / chromaloc=0 / display-window=0 / cll=0,0 / min-luma=0 / max-luma=1023 / log2-max-poc-lsb=8 / vui-timing-info / vui-hrd-info / slices=1 / no-opt-qp-pps / no-opt-ref-list-length-pps / no-multi-pass-opt-rps / scenecut-bias=0.05 / no-opt-cu-delta-qp / no-aq-motion / no-hdr / no-hdr-opt / no-dhdr10-opt / no-idr-recovery-sei / analysis-reuse-level=5 / scale-factor=0 / refine-intra=0 / refine-inter=0 / refine-mv=1 / refine-ctu-distortion=0 / no-limit-sao / ctu-info=0 / no-lowpass-dct / refine-analysis-type=0 / copy-pic=1 / max-ausize-factor=1.0 / no-dynamic-refine / no-single-sei / no-hevc-aq / no-svt / no-field / qp-adaptation-range=1.00
Default                                  : Yes
Forced                                   : No
Color range                              : Limited

Audio #1
ID                                       : 2
Format                                   : AC-3
Format/Info                              : Audio Coding 3
Commercial name                          : Dolby Digital
Codec ID                                 : A_AC3
Duration                                 : 1 h 48 min
Bit rate mode                            : Constant
Bit rate                                 : 384 kb/s
Channel(s)                               : 6 channels
Channel layout                           : L R C LFE Ls Rs
Sampling rate                            : 48.0 kHz
Frame rate                               : 31.250 FPS (1536 SPF)
Compression mode                         : Lossy
Stream size                              : 298 MiB (6%)
Title                                    : / 5.1 Ch / 384 kbps / ДЗ / Людмила Швец та Burton Jey
Language                                 : Ukrainian
Service kind                             : Complete Main
Default                                  : Yes
Forced                                   : Yes

Audio #2
ID                                       : 3
Format                                   : E-AC-3
Format/Info                              : Enhanced AC-3
Commercial name                          : Dolby Digital Plus
Codec ID                                 : A_EAC3
Duration                                 : 1 h 48 min
Bit rate mode                            : Constant
Bit rate                                 : 640 kb/s
Channel(s)                               : 6 channels
Channel layout                           : L R C LFE Ls Rs
Sampling rate                            : 48.0 kHz
Frame rate                               : 31.250 FPS (1536 SPF)
Compression mode                         : Lossy
Stream size                              : 496 MiB (10%)
Title                                    : E- / 5.1 Ch / 640 kbps / Original
Language                                 : English
Service kind                             : Complete Main
Default                                  : No
Forced                                   : No

Text
ID                                       : 4
Format                                   : UTF-8
Codec ID                                 : S_TEXT/UTF8
Codec ID/Info                            : UTF-8 Plain Text
Duration                                 : 1 h 39 min
Bit rate                                 : 68 b/s
Count of elements                        : 1713
Stream size                              : 50.0 KiB (0%)
Title                                    : Full
Language                                 : English
Default                                  : No
Forced                                   : No
Світлини




Джерело:
Особиста оцінка: 0 - не дивився


Авторський реліз (завантажувати можна без реєстрації)
 Трекер:    Зареєстрований   

Завантажити / скачати фільм українською



відео для новачків



 Зареєстрований:   2020-04-05 23:20
 Розмір:   4.69 GB 
 Оцінка фільму:   9/10 (Голосів: 17)
   
olimpian1 
VIP


З нами з: 19.10.13
Востаннє: 06.06.20
Повідомлень: 286

2020-04-06 17:26  
Люблю такі фільми.
waldi-hurtom 
VIP


З нами з: 07.10.12
Востаннє: 06.06.20
Повідомлень: 1141

2020-04-08 17:37  
Поєднання двох типів сценаріїв. Досить поверхневе, але майже захоплює, можна дивитися без нудьги. Один раз. 7 з 10. Дякую за реліз.
ck_admin 
Новенький


З нами з: 02.10.17
Востаннє: 07.06.20
Повідомлень: 9

2020-04-09 17:56  
Це мабуть найгірший фільм, за участі Бена Аффлека.
ktw14 
Поважний учасник


З нами з: 24.03.11
Востаннє: 05.06.20
Повідомлень: 165

2020-04-21 12:54  
Гарний фільм. Рекомендую!
Ваш часовий пояс: GMT + 2 Години

Нова тема   Відповісти