Король Данило / King Danylo (2018)

Нові коментарі

Нова тема   Відповісти
Автор Повідомлення
killer2015 
VIP


З нами з: 30.01.15
Востаннє: 04.03.21
Повідомлень: 378

2020-04-05 18:41  
Король Данило / King Danylo (2018)

Король Данило / King Danylo (2018)


Жанр: історичний, пригоди, екшн
Країна: Україна



Кінокомпанія: Invert Pictures
Режисер: Тарас Химич
Актори: Сергій Ярмошенко, Рiнат Хайруллін, Олег Сікиринський та інші

Сюжет:
«Король Данило» – друга повнометражна художня стрічка українського режисера Тараса Химича. Це історичний бойовик про те, як король Данило Галицький разом із братом Васильком наступають на замок таємного ордену, а також про знищення Києва ханом Батиєм, галицьких бояр та зраду.


Тривалість: 01:36:43
Якість:
Відео:
кодек:
розмір кадру: 704x368
бітрейт: 1 705 кб/с

Аудіо:
мова: українська
переклад: оригінал
кодек: 5.1
бітрейт: 448 кб/с
МедіаІнфо
General
Complete name : G:\Фільми\Koenig.der.Krieger.2018.GER..1.46Gb.avi
Format : AVI
Format/Info : Audio Video Interleave
File size : 1.46 GiB
Duration : 1 h 36 min
Overall bit rate : 2 162 kb/s
Movie name : Король Данило / King Danylo (2018)
Director : #stillet
Genre : История
Writing application : VirtualDubMod 1.5.10.3 (build 2550/release)
Writing library : VirtualDubMod build 2550/release

Video
ID : 0
Format : MPEG-4 Visual
Format profile : Advanced [email protected]
Format settings : BVOP1 / Custom Matrix
Format settings, BVOP : 1
Format settings, QPel : No
Format settings, GMC : No warppoints
Format settings, Matrix : Custom
Codec ID :
Codec ID/Hint :
Duration : 1 h 36 min
Bit rate : 1 705 kb/s
Width : 704 pixels
Height : 368 pixels
Display aspect ratio : 1.913
Frame rate : 24.000 FPS
Color space : YUV
Chroma subsampling : 4:2:0
Bit depth : 8 bits
Scan type : Progressive
Compression mode : Lossy
Bits/(Pixel*Frame) : 0.274
Stream size : 1.15 GiB (79%)
Writing library : 67

Audio
ID : 1
Format : AC-3
Format/Info : Audio Coding 3
Commercial name : Dolby Digital
Codec ID : 2000
Duration : 1 h 36 min
Bit rate mode : Constant
Bit rate : 448 kb/s
Channel(s) : 6 channels
Channel layout : L R C LFE Ls Rs
Sampling rate : 48.0 kHz
Frame rate : 31.250 FPS (1536 SPF)
Compression mode : Lossy
Stream size : 310 MiB (21%)
Alignment : Split across interleaves
Interleave, duration : 42 ms (1.00 video frame)
Interleave, preload duration : 500 ms
Service kind : Complete Main
Скріншоти




Джерело:


Золотий реліз (завантажене не впливає на рейтинг)
 Трекер:    Зареєстрований   

Завантажити / скачати український фільм



відео для новачків



 Зареєстрований:   2020-04-05 18:41
 Розмір:   1.46 GB 
 Оцінка фільму:   8.5/10 (Голосів: 44)
   
Інші релізи
killer2015 
VIP


З нами з: 30.01.15
Востаннє: 04.03.21
Повідомлень: 378

2020-04-05 18:43  
Аудіо- Ліцензія (Blu-ray GER)
Без субтитрів.

PatataFrita 
Свій


З нами з: 05.04.20
Востаннє: 09.02.21
Повідомлень: 94

2020-04-05 23:04  
Дякую!
sarmatianking 
Забанено
Забанено


З нами з: 02.01.10
Востаннє: 18.09.20
Повідомлень: 19

2020-04-06 13:53  
Краще б сховали цю ганьбу і не показували...
jetrizzz 
Новенький


З нами з: 20.04.20
Востаннє: 02.05.20
Повідомлень: 1

2020-04-20 14:25  
музика - лайно, взагалі не підходить. моментами відчуття, наче комедію від 1+1 дивлюсь
Св.Патрік 
Новенький


З нами з: 01.01.17
Востаннє: 03.03.21
Повідомлень: 2

2020-04-21 19:16  
костюми чудові! навіть дивно, що при досить невеликому бюджеті, вдалося вдягнути акторів у пристойні лахи. власне це все, що хорошого можна сказати про фільм.
з діалогами якась біда - вони настільки штучні, що стрічку неможливо дивитись.
так само вибивають з колії перегляду стрибки між сюжетними лініями. зазвичай вони меньш більш присутні в усіх фільмах, але тут зміни картинок відбуваються, як на мене, занадто різко.
постійна фонова музика, звісно, трохи напружує, але у порівнянні з двома попередніми недоліками, не так помітна.

arkhyp 
Свій


З нами з: 21.02.09
Востаннє: 28.02.21
Повідомлень: 50

2020-04-30 18:20  
Краще б сховали цю ганьбу і не показували...
Naziik 
Новенький


З нами з: 05.01.11
Востаннє: 22.02.21
Повідомлень: 12

2020-05-08 23:02  
Дивився це чудо в кінотеатрі, жалію потраченого часу. Як тае модна робити , якийсь погорілий театр.
Sergey1961 
Новенький


З нами з: 24.02.20
Востаннє: 11.05.20
Повідомлень: 3

2020-05-11 00:16  
Старий фільм краще та цікавіше, багато разів переглядаю, час від часу. А цей дуже слабенько зняли.
Ridan21 
Новенький


З нами з: 18.12.18
Востаннє: 04.03.21
Повідомлень: 8

2020-07-16 17:02  
Фільм надзвичайно слабкий - повна творча бездарність режисера і сценарію як такого немає. Старий "Данило - Князь Галицький" 1987 року в рази кращий.
Maryna22 
Свій


З нами з: 16.03.14
Востаннє: 03.03.21
Повідомлень: 64

2021-02-14 14:24  
Дякую за фільм! Тепер є що дітям показати, щоб вони уявляли як князі з підручників історії виглядали. Актори красиві, костюми, декорації, архітектура, сцени боїв, краєвиди - все дуже сподобалось. По сюжету показали основні пункти, на яких зупиняються при вивченні історії короля Данила, тому раджу показати цей фільм школярам під час вивчення відповідної теми. Єдине чого мені не вистачило, це яскраво вираженої кульмінації, коли глядач затамовує подих, а сюжет після цього наближається до щасливого завершення. А все інше було показано цікаво, красиво і з проукраїнської позиції. Отже, раджу дивитися. Особливо з дітьми 7 класів, які вивчають зараз діяльність князя Данила у школі.
Ваш часовий пояс: GMT + 2 Години

Нова тема   Відповісти