Поганий Санта [Без цензури] / Bad Santa [Unrated] (2003) 1080p Ukr/Eng | Sub Eng

Нові коментарі

Нова тема   Відповісти
Автор Повідомлення
Anonymous 







2020-04-05 16:21  
Поганий Санта [Без цензури] / Bad Santa [Unrated] (2003) 1080p Ukr/Eng | Sub Eng


Альтернативні постери:

Поганий Санта [Без цензури] / Bad Santa [Unrated] (2003) 1080p Ukr/Eng | Sub Eng]




Жанр: комедія, драма, кримінал
Країна: США, Німеччина


Кінокомпанія: Columbia Pictures Corporation
Режисер: Террі Цвіґофф (Terry Zwigoff)
Актори: Біллі Боб Тортон (Billy Bob Thornton), Тоні Кокс (Tony Cox), Бретт Келлі (Brett Kelly), Лорен Ґрем (Lauren Graham) та інші.

Сюжет:
Віллі - незвичайний Санта-Клаус. Раз на рік на Різдво він разом зі своїм напарником грабує черговий універмаг. До того ж у минулому він відсидів у в'язниці, був не один раз одружений, а нині Віллі - злісний бабій і пияк. Він по-справжньому поганий, нестерпний Санта! Але знайшовся хлопчина, який все-таки в нього повірив. І Віллі доведеться творити справжні чудеса, щоб цього разу довести задумане до кінця!
Відмінність між театральною і версією без цензури


Тривалість: 01:39:16
Якість: 1080p

Відео:
Кодек:
Розмір кадру: 1920x1040
Бітрейт:

Аудіо #1:
Мова: українська
Переклад: Двоголосий закадровий

Кодек: 5.1
Бітрейт: ~300 Кбіт/с

Аудіо #2:
Мова: англійська
Переклад: Оригінал
Кодек: 5.1
Бітрейт: 1509 Кбіт/с

Субтитри #1:
Мова: українська(форсовані, на моменти без перекладу)
Тип: програмні (м'які)
Формат: *.srt

Субтитри #2:
Мова: англійська(Повні)
Тип: програмні (м'які)
Формат: *.srt

Info


General
Unique ID : 175989535697266738790241217295813963926 (0x84665A07087C080CFBCD77874883F096)
Format :
Format version : Version 4
File size : 10.2 GiB
Duration : 1 h 39 min
Overall bit rate : 14.7 Mb/s
Movie name : Bad Santa [Unrated] (2003)1080..UkrEng.SubUkrEng
Encoded date : UTC 2018-12-31 22:41:38
Writing application : v28.2.0 ('The Awakening') 64-bit
Writing library : libebml v1.3.6 + v1.4.9
Cover : Yes
Attachments : cover_land.jpg / small_cover.jpg / small_cover_land.jpg / cover.jpg

Video
ID : 1
Format : AVC
Format/Info : Advanced Video Codec
Format profile : [email protected]
Format settings : CABAC / 5 Ref Frames
Format settings, CABAC : Yes
Format settings, Reference fra : 5 frames
Codec ID : V_MPEG4/ISO/AVC
Duration : 1 h 39 min
Bit rate : 12.8 Mb/s
Width : 1 920 pixels
Height : 1 040 pixels
Display aspect ratio : 1.85:1
Frame rate mode : Constant
Frame rate : 23.976 (24000/1001) FPS
Color space : YUV
Chroma subsampling : 4:2:0
Bit depth : 8 bits
Scan type : Progressive
Bits/(Pixel*Frame) : 0.267
Stream size : 8.87 GiB (87%)
Title : Bad Santa [Unrated] (2003)1080
Writing library : core 133 r2334+704+50 a7549b7 tMod [[email protected] X86_64]
Encoding settings : opencl=1 / cabac=1 / ref=5 / deblock=1:-3:-3 / analyse=0x3:0x133 / me=umh / subme=11 / psy=1 / fade_compensate=0.00 / psy_rd=1.10:0.25 / mixed_ref=1 / me_range=64 / chroma_me=1 / trellis=2 / 8x8dct=1 / cqm=0 / deadzone=21,11 / fast_pskip=0 / chroma_qp_offset=-4 / threads=12 / lookahead_threads=3 / sliced_threads=0 / nr=0 / decimate=1 / interlaced=0 / bluray_compat=0 / constrained_intra=0 / fgo=0 / bframes=16 / b_pyramid=2 / b_adapt=2 / b_bias=0 / direct=3 / weightb=1 / open_gop=0 / weightp=2 / keyint=240 / keyint_min=24 / scenecut=40 / intra_refresh=0 / rc_lookahead=200 / rc=crf / mbtree=1 / crf=16.5000 / qcomp=0.60 / qpmin=0 / qpmax=69 / qpstep=4 / ip_ratio=1.40 / aq=2:1.00 / aq-sensitivity=10.00 / aq-factor=1.00:1.00:1.00 / aq2=0 / aq3=0
Language : English
Default : Yes
Forced : No

Audio #1
ID : 2
Format : LC
Format/Info : Advanced Audio Codec Low Complexity
Codec ID : A_AAC-2
Duration : 1 h 39 min
Bit rate : 297 kb/s
Channel(s) : 6 channels
Channel layout : C L R Ls Rs LFE
Sampling rate : 48.0 kHz
Frame rate : 46.875 FPS (1024 SPF)
Compression mode : Lossy
Stream size : 211 MiB (2%)
Title : [1+1] @ 5.1 ~300 Kbps
Language : Ukrainian
Default : Yes
Forced : No

Audio #2
ID : 3
Format :
Format/Info : Digital Theater Systems
Codec ID : A_DTS
Duration : 1 h 39 min
Bit rate mode : Constant
Bit rate : 1 509 kb/s
Channel(s) : 6 channels
Channel layout : C L R Ls Rs LFE
Sampling rate : 48.0 kHz
Frame rate : 93.750 FPS (512 SPF)
Bit depth : 16 bits
Compression mode : Lossy
Stream size : 1.05 GiB (10%)
Title : [Original] @ 5.1 1509 Kbps
Language : English
Default : No
Forced : No

Text #1
ID : 4
Format : UTF-8
Codec ID : S_TEXT/UTF8
Codec ID/Info : UTF-8 Plain Text
Duration : 1 h 25 min
Bit rate : 10 b/s
Count of elements : 152
Stream size : 6.88 KiB (0%)
Title : Forced
Language : Ukrainian
Default : Yes
Forced : Yes

Text #2
ID : 5
Format : PGS
Codec ID : S_HDMV/PGS
Codec ID/Info : Picture based subtitle format used on BDs/HD-DVDs
Duration : 1 h 33 min
Bit rate : 37.9 kb/s
Count of elements : 2138
Stream size : 25.3 MiB (0%)
Language : English
Default : No
Forced : No

Text #3
ID : 6
Format : PGS
Codec ID : S_HDMV/PGS
Codec ID/Info : Picture based subtitle format used on BDs/HD-DVDs
Duration : 1 h 39 min
Bit rate : 48.7 kb/s
Count of elements : 2413
Stream size : 34.5 MiB (0%)
Language : English
Default : No
Forced : No

Menu
00:00:00.000 : en:Christmas in Milwaukee
00:07:31.326 : en:On the Wagon?
00:12:02.722 : en:Florida Robbery
00:16:09.927 : en:"#%&^-Stick?"
00:19:35.424 : en:"What D'You Want?"
00:23:33.537 : en:"Prove It"
00:28:09.354 : en:"Is Granny Spry?"
00:31:41.566 : en:Keeping a Low Profile
00:37:10.895 : en:Santa's New Hideout
00:44:36.132 : en:"Wanna Play Again?"
00:48:47.299 : en:"That's Gonna Sting a Little"
00:53:22.408 : en:"He's Clean"
00:58:43.311 : en:Negotiating
01:04:03.465 : en:Turning a Corner?
01:09:16.944 : en:Boxing and the Wooden Pickle
01:16:07.730 : en:A Merry Chrismas Eve
01:21:59.081 : en:The Kitnerboy Redoubt
01:27:08.014 : en:"For Christ's Sake, It's Christmas"
01:35:02.113 : en:End Credits
Скріншоти









Джерело: &

Українська доріжка - від robotron005, urij546724


Срібний реліз (на рейтинг впливає 50% завантаженого)
 Трекер:    Зареєстрований   

Завантажити / скачати фільм українською



відео для новачків



 Зареєстрований:   2020-04-05 16:21
 Розмір:   10.18 GB 
 Оцінка фільму:   9.6/10 (Голосів: 7)
   
Ваш часовий пояс: GMT + 2 Години

Нова тема   Відповісти