Факультет / The Faculty (1998) Remux 1080p 3xUkr/Eng | Sub Ukr/Eng

Нові коментарі

Нова тема   Відповісти
Автор Повідомлення
MakRA 
VIP


З нами з: 10.11.18
Востаннє: 01.03.21
Повідомлень: 1187

2020-04-05 00:43  
Факультет / The Faculty (1998) Remux 1080p 3xUkr/Eng | Sub Ukr/Eng

Факультет / The Faculty (1998) Remux 1080p 3xUkr/Eng | Sub Ukr/Eng

Український постер:

Жанр: фантастика, жахи
Країна: США



Кінокомпанія: Dimension Films, Los Hooligans Productions
Режисер: Роберт Родрігес [Robert Rodriguez]
Актори: Роберт Патрік [Robert Patrick], Лора Гарріс [Laura Harris], Фамке Янссен [Famke Janssen], Сальма Гаєк [Salma Hayek], Елайджа Вуд [Elijah Wood], Бібі Ньювірт [Bebe Neuwirth], Джордана Брюстер [Jordana Brewster], Клеа ДюВолл [Clea DuVall], Джош Гартнет [Josh Hartnett], Ашер Реймонд [Usher Raymond]

Сюжет:
Культовий фантастичний фільм жахів кінця 90-х від геніального режисера трешових екшнів Роберта Родрігеса.
Дії фантастичного трилера «Факультет» відбуваються в коледжі Херрінгтон, штат Огайо. Сюжет фільму розповідає про життя звичайних студентів коледжу, серед яких є круті хлопці, які захоплюються наркотиками, не менш круті спортсмени, улюбленці всіх дівчат коледжу, а також розумники, одинаки і просто придурки. Молоді люди, як звичайні підлітки у всіх куточках планети, закохуються, сваряться і ворогують між собою.
Одного разу розумник Кейсі знайшов новий вид паразита на футбольному полі і показав його на уроці біології. У воді організм став розвиватися. В цей же час деякі учні факультету помічають дивину в поведінці викладачів...

Цікаве про фільм та зйомки:


-У туалеті можна помітити напис «Tito and Tarantula». Дана група написала частину музики і зіграла в двох інших картинах Родрігеза - «Відчайдушний» (1995) і «Від заходу до світанку» (1996).
-Мерібет відмовляється приймати наркотики, заявивши, що у неї алергія. На що Делайл (Джордана Брюстер) відповідає: «А я португалка». У реальному житті Брюстер вільно говорить португальсько..
-Джон Стюарт виконав роль професора Едварда Ферлонга. Актора Едварда Ферлонга, який зіграв Джона Коннора в «Термінаторі 2: Судний день» (1991), переслідував Т-1000, в ролі якого знявся Роберт Патрік, який зіграв у «Факультеті» тренера Джо Вілліса.
-У сцені, де ми чуємо оголошення про те, що школярі повинні пройти в учительську, одного з них звуть Томмі Нікс. У реальному житті Томмі Нікс - друг Роберта Родрігеза з часів коледжу. Він допомагав Роберту в написанні сценарію до «Гонщикам» (1994)
-Авто Зіка - 1970 Pontiac GTO.
-Роль Делайли була спеціально написана для Харизми Карпентер, але акторка відкинула пропозицію, вважаючи, що даний персонаж дуже схожий на її героїню в «Баффі - винищувачка вампірів» (1997).
-Герої фільму одягнені в одяг «Tommy Hilfiger». Актори, які зіграли головні ролі, також з'явилися в телевізійних роликах і друкованій рекламі даного бренду.


Тривалість: 01:44:17
Якість: Remux 1080p [JP Transfer]
Відео:
кодек:
розмір кадру: 1920 х 1080
бітрейт: 34,8 Mб/с

Аудіо # 1:
мова: українська
переклад: професійний дубльований
кодек: 2.0
бітрейт: 192 кб/с

Аудіо # 2:
мова: українська
переклад: двоголосий закадровий
кодек: 2.0
бітрейт: 192 кб/с

Аудіо # 3:
мова: українська
переклад: двоголосий закадровий
кодек: 2.0
бітрейт: 192 кб/с

Аудіо # 4:
мова: англійська
переклад: оригінал
кодек: -HD MA 5.1
бітрейт: 4123 кб/с

Субтитри # 1: (Full)
мова: українська
тип: програмні (м'які)
формат: *.srt

Субтитри # 2-3: (Full) | (SDH)
мова: англійська
тип: програмні (м'які)
формат: *.srt

Субтитри # 4: (SDH)
мова: англійська
тип: пререндерні
формат: *.pgs

Збережено оригінальні іменовані розділи, як на Blu-ray.
Info
General
Unique ID : 236851115320479474890275461455472363117 (0xB22FDD93BFC60280420A71A91FA6066D)
Complete name : I:\+ Фільми в HD\фантастика, жахи\The Faculty (1998) Remux 1080p 3xUkrEng Sub UkrEng [Hurtom].
Format :
Format version : Version 4
File size : 28.8 GiB
Duration : 1 h 44 min
Overall bit rate mode : Variable
Overall bit rate : 39.5 Mb/s
Movie name : Факультет / The Faculty (1998) Remux 1080p 3xUkr/Eng | Sub Ukr/Eng [Hurtom]
Encoded date : UTC 2020-04-03 22:20:41
Writing application : v44.0.0 ('Domino') 64-bit
Writing library : libebml v1.3.10 + v1.5.2
Cover : Yes
Attachments : cover.jpg

Video
ID : 1
Format : AVC
Format/Info : Advanced Video Codec
Format profile : [email protected]
Format settings : CABAC / 2 Ref Frames
Format settings, CABAC : Yes
Format settings, Reference fra : 2 frames
Format settings, GOP : M=1, N=10
Codec ID : V_MPEG4/ISO/AVC
Duration : 1 h 44 min
Bit rate mode : Variable
Bit rate : 34.8 Mb/s
Width : 1 920 pixels
Height : 1 080 pixels
Display aspect ratio : 16:9
Frame rate mode : Constant
Frame rate : 23.976 (24000/1001) FPS
Color space : YUV
Chroma subsampling : 4:2:0
Bit depth : 8 bits
Scan type : Progressive
Bits/(Pixel*Frame) : 0.700
Stream size : 25.3 GiB (88%)
Title : The Faculty (1998) Remux 1080p 3xUkr/Eng | Sub Ukr/Eng [Hurtom]
Language : Ukrainian
Default : Yes
Forced : Yes

Audio #1
ID : 2
Format : AC-3
Format/Info : Audio Coding 3
Commercial name : Dolby Digital
Codec ID : A_AC3
Duration : 1 h 44 min
Bit rate mode : Constant
Bit rate : 192 kb/s
Channel(s) : 2 channels
Channel layout : L R
Sampling rate : 48.0 kHz
Frame rate : 31.250 FPS (1536 SPF)
Compression mode : Lossy
Delay relative to video : -16 ms
Stream size : 143 MiB (0%)
Title : DUB [NLO.TV] 2.0
Language : Ukrainian
Service kind : Complete Main
Default : Yes
Forced : Yes

Audio #2
ID : 3
Format : AC-3
Format/Info : Audio Coding 3
Commercial name : Dolby Digital
Codec ID : A_AC3
Duration : 1 h 43 min
Bit rate mode : Constant
Bit rate : 192 kb/s
Channel(s) : 2 channels
Channel layout : L R
Sampling rate : 48.0 kHz
Frame rate : 31.250 FPS (1536 SPF)
Compression mode : Lossy
Delay relative to video : -13 ms
Stream size : 143 MiB (0%)
Title : DVO [ТЕТ] 2.0
Language : Ukrainian
Service kind : Complete Main
Default : No
Forced : No

Audio #3
ID : 4
Format : AC-3
Format/Info : Audio Coding 3
Commercial name : Dolby Digital
Codec ID : A_AC3
Duration : 1 h 43 min
Bit rate mode : Constant
Bit rate : 192 kb/s
Channel(s) : 2 channels
Channel layout : L R
Sampling rate : 48.0 kHz
Frame rate : 31.250 FPS (1536 SPF)
Compression mode : Lossy
Delay relative to video : -13 ms
Stream size : 143 MiB (0%)
Title : DVO [НОВИЙ] 2.0
Language : Ukrainian
Service kind : Complete Main
Default : No
Forced : No

Audio #4
ID : 5
Format : XLL
Format/Info : Digital Theater Systems
Commercial name : -HD Master Audio
Codec ID : A_DTS
Duration : 1 h 44 min
Bit rate mode : Variable
Bit rate : 4 123 kb/s
Channel(s) : 6 channels
Channel layout : C L R Ls Rs LFE
Sampling rate : 48.0 kHz
Frame rate : 93.750 FPS (512 SPF)
Bit depth : 24 bits
Compression mode : Lossless
Delay relative to video : -41 ms
Stream size : 3.00 GiB (10%)
Title : Original -HD MA 5.1
Language : English
Default : No
Forced : No

Text #1
ID : 6
Format : UTF-8
Codec ID : S_TEXT/UTF8
Codec ID/Info : UTF-8 Plain Text
Duration : 1 h 38 min
Bit rate : 78 b/s
Count of elements : 919
Stream size : 56.9 KiB (0%)
Title : Ukr (Full) SRT
Language : Ukrainian
Default : No
Forced : No

Text #2
ID : 7
Format : UTF-8
Codec ID : S_TEXT/UTF8
Codec ID/Info : UTF-8 Plain Text
Duration : 1 h 38 min
Bit rate : 56 b/s
Count of elements : 1121
Stream size : 40.6 KiB (0%)
Title : Eng (Full) SRT
Language : English
Default : No
Forced : No

Text #3
ID : 8
Format : UTF-8
Codec ID : S_TEXT/UTF8
Codec ID/Info : UTF-8 Plain Text
Duration : 1 h 43 min
Bit rate : 65 b/s
Count of elements : 1378
Stream size : 49.5 KiB (0%)
Title : Eng (SDH) SRT
Language : English
Default : No
Forced : No

Text #4
ID : 9
Format : PGS
Muxing mode : zlib
Codec ID : S_HDMV/PGS
Codec ID/Info : Picture based subtitle format used on BDs/HD-DVDs
Duration : 1 h 43 min
Bit rate : 54.9 kb/s
Count of elements : 2724
Stream size : 40.5 MiB (0%)
Title : Eng (SDH) PGS
Language : English
Default : No
Forced : No

Menu
00:01:38.600 : en:01. Football Practice
00:03:13.530 : en:02. Staff Meeting
00:07:48.050 : en:03. Coach Willis
00:11:35.440 : en:04. Introductions
00:14:21.780 : en:05. Faculty Lounge
00:16:37.250 : en:06. Herrington High
00:20:05.290 : en:07. Eating Lunch Alone
00:25:31.860 : en:08. Sea-Dwelling Organism
00:29:10.750 : en:09. Mrs Brummel
00:30:44.130 : en:10. "We Can't Go Here!"
00:34:19.390 : en:11. "I Have A Pain"
00:37:40.760 : en:12. Resuscitation Annie
00:40:10.780 : en:13. "What Are You On, Son"
00:43:03.960 : en:14. Back To School
00:45:03.240 : en:15. A "D" Student
00:46:57.270 : en:16. "What's Going On Here?"
00:49:39.270 : en:17. Science Fiction Or Fact
00:54:15.210 : en:18. Mr. Furlong
00:57:55.010 : en:19. The Getaway
01:00:26.290 : en:20. Oscar's Infection
01:06:12.890 : en:21. Tweakin'
01:11:40.130 : en:22. The Big Game
01:14:02.230 : en:23. Mistake?
01:17:13.170 : en:24. Stan
01:20:42.880 : en:25. Decoy
01:23:14.320 : en:26. Cherry-Flavoured
01:25:49.560 : en:27. The Outsider
01:29:17.980 : en:28. "Two Of Everything"
01:32:04.600 : en:29. Guaranbteed To Jack You Up
01:37:02.860 : en:30. Back To Normal
01:39:04.650 : en:31. End Credits
Скріншоти
Джерело: &
За запис з ТБ подяка п. slavik_v_z, Bohdan237, Neytreenor,
за постер - п. realnitro,
за субтитри - п. _oles та п. w2958l
Особиста оцінка: 10 - без зайвих вагань рекомендую всім!


Золотий реліз (завантажене не впливає на рейтинг)
 Трекер:    Зареєстрований   

Завантажити / скачати фільм українською



відео для новачків



 Зареєстрований:   2020-04-05 00:43
 Розмір:   28.77 GB 
 Оцінка фільму:   9.4/10 (Голосів: 14)
   
Інші релізи
   Факультет / The Faculty (1998) AVC 3xUkr | Sub Ukr/Eng Maters  4 / 0   1.91 GB   2019-12-09 23:49 
   Факультет / The Faculty (1998) 720p 3xUkr/Eng | Sub Ukr/Eng Hurtomivets  2 / 0   4.56 GB   2019-06-09 07:58 
   Факультет / The Faculty (1998) 1080p H.265 3xUkr/Eng | Sub Ukr/Eng -Star-Lord-  4 / 0   3.86 GB   2019-06-03 09:07 
   Факультет / The Faculty (1998) AVC 2xUkr/Eng | Sub Ukr Arsenfpu  3 / 0   2.54 GB   2017-12-08 23:50 
   Факультет / The Faculty (1998) [MP4, 640x] apvAltisimo  0 / 0   621 MB   2016-04-03 14:33 
   Факультет / The Faculty (1998) 2xUkr/Eng | Sub Ukr/Eng _oles  2 / 1   2.51 GB   2012-02-04 10:10 
Ваш часовий пояс: GMT + 2 Години

Нова тема   Відповісти