Шостий гравець / The Sixth Man (1997) 720p Ukr/Eng

Нові коментарі

Нова тема   Відповісти
Останній раз роздавалося MutuLI (2020-09-24)
Автор Повідомлення
Arch Enemy 
VIP


З нами з: 30.08.12
Востаннє: 25.09.20
Повідомлень: 1909

2020-04-04 22:00  
Шостий гравець / The Sixth Man (1997) 720p Ukr/Eng



Жанр: фантастика, спорт, драма, комедія
Країна: США



Кінокомпанії: All Net Productions, Mandeville Films, Touchstone Pictures
Режисер: Рендалл Міллер
Актори: Марлон Ваянс, Кадім Хардісон, Девід Пеймер, Міхаель Мішель, Кевін Данн, Ґарі Джонс, Лоренцо Орр, Владімір Кук, Тревіс Форд Кріс Спенсер та інші.

Сюжет:
Батько Кенні та Антуана Тайлерів, який мріяв, щоб його сини стали баскетболістами, помер від інфаркту. Брати стали чудовими спортсменами з великим майбутнім, але Антуан несподівано помирає від інфаркту прямо на баскетбольному майданчику. У Кенні все йде шкереберть, але потім зненацька ситуація змінюється. Він знову починає грати так, ніби хтось невидимий допомагає його команді і йому. Можливо, це привид старшого брата? Чи зможе Кенні стати переможцем без допомоги загадкової сили?


Тривалість: 01:48:05
Якість: 720p

Відео:
кодек:
розмір кадру: 1280х718
бітрейт: 4085 Кбіт/сек.
контейнер:

Аудіо # 1:
мова: українська
озвучення: багатоголосе, закадрове
кодек:
кількість каналів: 2.0
бітрейт: 384 кбіт/сек.

Аудіо # 2:
мова: англійська
озвучення: оригінал
кодек:
кількість каналів: 5.1
бітрейт: 384 кбіт/сек.

Джерело перекладу, озвучення та релізу: AniUA
Info
General
Unique ID : 98261448867528887120921649727869231494 (0x49EC7778080E8D6852471FFBF83B2186)
Complete name : D:\Films\The Sixth Man [1997] 720p.
Format :
Format version : Version 4
File size : 3.67 GiB
Duration : 1 h 48 min
Overall bit rate : 4 855 kb/s
Movie name : The Sixth Man [1997]
Encoded date : UTC 2020-04-04 20:28:20
Writing application : v40.0.0 ('Old Town Road + Pony') 64-bit
Writing library : libebml v1.3.9 + v1.5.2

Video
ID : 1
Format : AVC
Format/Info : Advanced Video Codec
Format profile : [email protected]
Format settings : 2 Ref Frames
Format settings, CABAC : No
Format settings, Reference : 2 frames
Codec ID : V_MPEG4/ISO/AVC
Duration : 1 h 48 min
Bit rate : 4 085 kb/s
Width : 1 280 pixels
Height : 718 pixels
Display aspect ratio : 16:9
Frame rate mode : Constant
Frame rate : 23.976 (23976/1000) FPS
Color space : YUV
Chroma subsampling : 4:2:0
Bit depth : 8 bits
Scan type : Progressive
Bits/(Pixel*Frame) : 0.185
Stream size : 3.08 GiB (84%)
Title : The Sixth Man [1997]
Language : English
Default : Yes
Forced : Yes
Color range : Limited
Color primaries : BT.709
Transfer characteristics : BT.709
Matrix coefficients : BT.709

Audio #1
ID : 2
Format : AC-3
Format/Info : Audio Coding 3
Commercial name : Dolby Digital
Codec ID : A_AC3
Duration : 1 h 48 min
Bit rate mode : Constant
Bit rate : 384 kb/s
Channel(s) : 2 channels
Channel layout : L R
Sampling rate : 48.0 kHz
Frame rate : 31.250 FPS (1536 SPF)
Compression mode : Lossy
Stream size : 297 MiB (8%)
Title : AniUA MVO
Language : Ukrainian
Service kind : Complete Main
Default : Yes
Forced : Yes

Audio #2
ID : 3
Format : AC-3
Format/Info : Audio Coding 3
Commercial name : Dolby Digital
Codec ID : A_AC3
Duration : 1 h 48 min
Bit rate mode : Constant
Bit rate : 384 kb/s
Channel(s) : 6 channels
Channel layout : L R C LFE Ls Rs
Sampling rate : 48.0 kHz
Frame rate : 31.250 FPS (1536 SPF)
Compression mode : Lossy
Stream size : 297 MiB (8%)
Title : Original
Language : English
Service kind : Complete Main
Default : No
Forced : No


Озвучено за фінансової підтримки NemoInFire



Авторський реліз (завантажувати можна без реєстрації)
 Трекер:    Зареєстрований   

Завантажити / скачати фільм українською



відео для новачків



 Зареєстрований:   2020-04-05 14:15
 Розмір:   3.67 GB 
 Оцінка фільму:   9.8/10 (Голосів: 9)
   
bot 
робот


З нами з: 30.09.07
Востаннє: 26.05.05
Повідомлень: 25602

2020-04-05 14:15  
Тему перенесено з Анонси релізів до форуму Фільми в HD


Arch Enemy

Ваш часовий пояс: GMT + 2 Години

Нова тема   Відповісти