Голова над водою / Head Above Water (1996) 720p Ukr/Eng | Sub Eng

Нові коментарі

Нова тема   Відповісти
Автор Повідомлення
Anonymous 







2020-04-04 16:12  
Голова над водою / Head Above Water (1996) 720p Ukr/Eng | Sub Eng

Голова над водою / Head Above Water (1996) 720p Ukr/Eng | Sub Eng


Жанр: комедія, трилер
Країна: США



Кінокомпанія: Majestic Films International, Tig Productions
Режисер: Джим Вілсон / Jim Wilson
Актори: Гарві Кейтель / Harvey Keitel, Камерон Діаз / Cameron Diaz, Крейґ Шеффер / Craig Sheffer, Біллі Зейн / Billy Zane, Шей Даффін / Shay Duffin

Сюжет:
Наталі, чарівна молода жінка, планує екзотичну відпустку на безлюдному узбережжі зі своїм новим чоловіком Джорджем. До нещастя, Наталі виявляється предметом жадання ще двох чоловіків, які опинилися на острові: її друга дитинства Ленса й колишнього коханого - Кента. Залишившись наодинці з Кентом, Наталі щосили намагається бути вірною дружиною, ну а Кент, у свою чергу, докладає всіх зусиль, щоб її спокусити.
Однак наступного ранку Наталі вже не до любовних утіх; героїня та її залицяльник виявляються залучені до нескінченної низки катастрофічних неприємностей. Ось тут-то все і починається...


Тривалість: 01:32:10
Якість: 720p
Відео:
кодек:
розмір кадру: 1280х720
бітрейт: 7445 кб/с

Аудіо # 1:
мова: українська
переклад: багатоголосий закадровий ,
кодек: 5.1
бітрейт: 448 кб/с

Аудіо # 2:
мова: англійська
переклад: оригінал
кодек: 5.1
бітрейт: 448 кб/с

Субтитри:
мова: англійська
тип: програмні (м'які)
формат: *.srt
Info
General
Unique ID : 178223818927956514809683904138020415288 (0x8614A8B21A6EF540AC76BD7D73646738)
Complete name : E:\Toloka\2020\Head Above Water (1996) 720p.
Format :
Format version : Version 4
File size : 5.37 GiB
Duration : 1 h 32 min
Overall bit rate : 8 339 kb/s
Encoded date : UTC 2020-04-04 12:56:58
Writing application : v6.1.0 ('Old Devil') built on Mar 4 2013 09:10:42
Writing library : libebml v1.3.0 + v1.4.0

Video
ID : 1
Format : AVC
Format/Info : Advanced Video Codec
Format profile : [email protected]
Format settings : CABAC / 9 Ref Frames
Format settings, CABAC : Yes
Format settings, RefFrames : 9 frames
Codec ID : V_MPEG4/ISO/AVC
Duration : 1 h 32 min
Bit rate : 7 445 kb/s
Width : 1 280 pixels
Height : 720 pixels
Display aspect ratio : 16:9
Frame rate mode : Constant
Frame rate : 23.976 (24000/1001) FPS
Color space : YUV
Chroma subsampling : 4:2:0
Bit depth : 8 bits
Scan type : Progressive
Bits/(Pixel*Frame) : 0.337
Stream size : 4.69 GiB (87%)
Writing library : core 152 r2851kMod ba24899
Encoding settings : cabac=1 / ref=9 / deblock=1:-3:-2 / analyse=0x3:0x113 / me=umh / subme=11 / psy=1 / fade_compensate=0.00 / psy_rd=1.00:0.00 / mixed_ref=1 / me_range=48 / chroma_me=1 / trellis=2 / 8x8dct=1 / cqm=0 / deadzone=21,11 / fast_pskip=0 / chroma_qp_offset=-2 / threads=6 / lookahead_threads=1 / sliced_threads=0 / nr=0 / decimate=0 / interlaced=0 / bluray_compat=0 / constrained_intra=0 / bframes=16 / b_pyramid=2 / b_adapt=2 / b_bias=0 / direct=3 / weightb=1 / open_gop=0 / weightp=2 / keyint=240 / keyint_min=23 / scenecut=40 / intra_refresh=0 / rc_lookahead=40 / rc=2pass / mbtree=0 / bitrate=7445 / ratetol=1.0 / qcomp=0.60 / qpmin=0 / qpmax=69 / qpstep=4 / cplxblur=20.0 / qblur=0.5 / vbv_maxrate=50000 / vbv_bufsize=62500 / nal_hrd=none / filler=0 / ip_ratio=1.40 / pb_ratio=1.30 / aq=1:1.00
Language : English
Default : Yes
Forced : No
Color range : Limited
Color primaries : BT.709
Transfer characteristics : BT.709
Matrix coefficients : BT.709

Audio #1
ID : 2
Format : AC-3
Format/Info : Audio Coding 3
Commercial name : Dolby Digital
Codec ID : A_AC3
Duration : 1 h 32 min
Bit rate mode : Constant
Bit rate : 448 kb/s
Channel(s) : 6 channels
Channel layout : L R C LFE Ls Rs
Sampling rate : 48.0 kHz
Frame rate : 31.250 FPS (1536 SPF)
Bit depth : 16 bits
Compression mode : Lossy
Stream size : 295 MiB (5%)
Title : UKR (ICTV, Новий)
Language : Ukrainian
Service kind : Complete Main
Default : Yes
Forced : Yes

Audio #2
ID : 3
Format : AC-3
Format/Info : Audio Coding 3
Commercial name : Dolby Digital
Codec ID : A_AC3
Duration : 1 h 32 min
Bit rate mode : Constant
Bit rate : 448 kb/s
Channel(s) : 6 channels
Channel layout : L R C LFE Ls Rs
Sampling rate : 48.0 kHz
Frame rate : 31.250 FPS (1536 SPF)
Bit depth : 16 bits
Compression mode : Lossy
Stream size : 295 MiB (5%)
Title : Eng
Language : English
Service kind : Complete Main
Default : No
Forced : No

Text #1
ID : 4
Format : UTF-8
Codec ID : S_TEXT/UTF8
Codec ID/Info : UTF-8 Plain Text
Title : Full
Language : English
Default : No
Forced : No

Text #2
ID : 5
Format : UTF-8
Codec ID : S_TEXT/UTF8
Codec ID/Info : UTF-8 Plain Text
Title : Full + Songs
Language : English
Default : No
Forced : No

Menu
00:00:00.000 : en:Chapter 01
00:03:41.293 : en:Chapter 02
00:06:10.609 : en:Chapter 03
00:09:41.987 : en:Chapter 04
00:13:41.760 : en:Chapter 05
00:16:59.591 : en:Chapter 06
00:20:43.848 : en:Chapter 07
00:23:14.632 : en:Chapter 08
00:28:53.638 : en:Chapter 09
00:33:41.425 : en:Chapter 10
00:36:53.817 : en:Chapter 11
00:43:13.030 : en:Chapter 12
00:49:04.381 : en:Chapter 13
00:53:48.131 : en:Chapter 14
01:00:48.084 : en:Chapter 15
01:07:06.261 : en:Chapter 16
01:11:27.355 : en:Chapter 17
01:16:09.137 : en:Chapter 18
01:21:13.641 : en:Chapter 19
01:28:38.219 : en:Chapter 20
Скріншоти








За доріжку подяка п.: Merdiff, karvai0, Lan, urij546724

Особиста подяка пану denixx за надану матеріальну допомогу на підтримку цього і майбутніх релізів.
Джерело:


Срібний реліз (на рейтинг впливає 50% завантаженого)
 Трекер:    Зареєстрований   

Завантажити / скачати фільм українською



відео для новачків



 Зареєстрований:   2020-04-04 16:12
 Розмір:   5.37 GB 
 Оцінка фільму:   10/10 (Голосів: 4)
   
Інші релізи
   Голова над водою / Head Above Water (1996) Ukr/Eng | Sub Eng Lan  2 / 1   1.75 GB   2013-04-04 21:44 
Ваш часовий пояс: GMT + 2 Години

Нова тема   Відповісти