1917 / 1917 (2019) 1080p H.265 Ukr/Eng | Sub Eng

Нові коментарі

Нова тема   Відповісти
Автор Повідомлення
Anonymous 







2020-04-04 13:40  
1917 / 1917 (2019) 1080p H.265 Ukr/Eng | Sub Eng

1917 / 1917 (2019) 1080p H.265 Ukr/Eng | Sub Eng


Країна: Велика Британія, США
Жанр: бойовик, військовий, драма, історичний
Кінокомпанія: DreamWorks, Reliance Entertainment, New Republic Pictures
Режисер: Сем Мендес
Актори: Дін-Чарльз Чепмен Джордж МакКей Ендрю Скотт Колін Ферт Деніел Мейс Марк Стронґ Річард Медден

Сюжет:
1917 рік, Перша світова війна поки й не думає закінчуватися. У воєнний час на прийняття рішення у вас рідко є години або хоча би хвилини – часом Вам потрібно щось зробити в лічені секунди. Двом молодим солдатам, Шоффілду і Блейку, потрібно зробити неможливе – прорватися крізь ворожу територію, щоб попередити інший батальйон про пастку, у яку вони йдуть. Це по-справжньому смертельна місія, але тільки від цих двох хлопців залежить доля 1600 солдатів. І найбільше Блейк хоче врятувати свого брата, який як раз може загинути в тій пастці. Вони будуть багато ризикувати своїми життями, адже час зовсім не на їхньому боці.

Тривалість: 01:58:58
Якість:

Відео:
кодек: H.265 (HEVC)
розмір кадру: 1920 x 804
бітрейт: 6 684 кб/с
бітова глибина: 10 біт

Увага! Перед завантаженням переконайтесь, що ваш пристрій відтворення (та/або ПЗ) підтримує H.265 (HEVC)

Аудіо # 1:
мова: українська
переклад: професійний дубльований
кодек: AC-3 5.1
бітрейт: 384 кб/с

Аудіо # 2:
мова: англійська
переклад: оригінал
кодек: AC-3 5.1
бітрейт: 1537 кб/с

Аудіо # 3:
мова: англійська
переклад: коментарі режисера Сема Мендеса
кодек: AC-3 2.0
бітрейт: 192 кб/с

Аудіо # 4:
мова: англійська
переклад: коментарі оператора Роджера Дікінса
кодек: AC-3 2.0
бітрейт: 192 кб/с

Субтитри # 1: (Forced)
мова: українська
тип: програмні (м'які)
формат: *.srt

Субтитри # 2-4: (Full, SDH, SDH-Colored)
мова: англійська
тип: програмні (м'які)
формат: *.srt


Info
Код:
General
Unique ID                                : 129020421901642477186585511727511498547 (0x61106DED0362B128322078655AEDEF33)
Complete name                            : 1917 (2019) 1080p H.265 [UKR_ENG] [Hurtom].
Format                                   :
Format version                           : Version 4
File size                                : 7.47 GiB
Duration                                 : 1 h 58 min
Overall bit rate                         : 8 990 kb/s
Movie name                               : 1917 / 1917 (2019)
Encoded date                             : UTC 2020-06-03 22:31:03
Writing application                      : v20.0.0 ('I Am The Sun') 64-bit
Writing library                          : libebml v1.3.5 + v1.4.8
Cover                                    : Yes
Attachments                              : Cover.jpg

Video
ID                                       : 1
Format                                   : HEVC
Format/Info                              : High Efficiency Video Coding
Format profile                           : Main [email protected]@High
Codec ID                                 : V_MPEGH/ISO/HEVC
Duration                                 : 1 h 58 min
Bit rate                                 : 6 683 kb/s
Width                                    : 1 920 pixels
Height                                   : 804 pixels
Display aspect ratio                     : 2.40:1
Frame rate mode                          : Constant
Frame rate                               : 23.976 (24000/1001) FPS
Color space                              : YUV
Chroma subsampling                       : 4:2:0
Bit depth                                : 10 bits
Bits/(Pixel*Frame)                       : 0.181
Stream size                              : 5.55 GiB (74%)
Title                                    : 1917 / 1917 (2019)
Writing library                          : x265 3.3+2-gbe2d82093:[Windows][GCC 10.0.1][64 bit] 10bit
Encoding settings                        : cpuid=1111039 / frame-threads=4 / numa-pools=16 / wpp / no-pmode / no-pme / no-psnr / no-ssim / log-level=2 / input-csp=1 / input-res=1920x804 / interlace=0 / total-frames=171144 / level-idc=41 / high-tier=1 / uhd-bd=0 / ref=6 / no-allow-non-conformance / no-repeat-headers / annexb / no-aud / no-hrd / info / hash=0 / no-temporal-layers / open-gop / min-keyint=23 / keyint=240 / gop-lookahead=0 / bframes=16 / b-adapt=2 / b-pyramid / bframe-bias=0 / rc-lookahead=60 / lookahead-slices=1 / scenecut=40 / hist-scenecut=0 / radl=0 / no-splice / no-intra-refresh / ctu=32 / min-cu-size=8 / rect / amp / max-tu-size=32 / tu-inter-depth=4 / tu-intra-depth=4 / limit-tu=1 / rdoq-level=2 / dynamic-rd=0.00 / no-ssim-rd / signhide / no-tskip / nr-intra=0 / nr-inter=0 / no-constrained-intra / no-strong-intra-smoothing / max-merge=5 / limit-refs=3 / limit-modes / me=3 / subme=7 / merange=57 / temporal-mvp / no-frame-dup / hme / Level / merange / L0,L1,L2=16,32,57 / weightp / weightb / no-analyze-src-pics / deblock=-3:-2 / no-sao / no-sao-non-deblock / rd=6 / selective-sao=0 / no-early-skip / rskip / rskip-edge-threshold=0.050000 / no-fast-intra / no-tskip-fast / no-cu-lossless / b-intra / no-splitrd-skip / rdpenalty=0 / psy-rd=2.00 / psy-rdoq=1.00 / no-rd-refine / no-lossless / cbqpoffs=0 / crqpoffs=0 / rc=crf / crf=18.5 / qcomp=0.60 / qpstep=4 / stats-write=0 / stats-read=0 / vbv-maxrate=50000 / vbv-bufsize=50000 / vbv-init=0.9 / crf-max=0.0 / crf-min=0.0 / ipratio=1.40 / pbratio=1.30 / aq-mode=4 / aq-strength=0.80 / no-cutree / zone-count=0 / no-strict-cbr / qg-size=32 / no-rc-grain / qpmax=69 / qpmin=0 / no-const-vbv / sar=1 / overscan=0 / videoformat=5 / range=0 / colorprim=1 / transfer=1 / colormatrix=1 / chromaloc=0 / display-window=0 / cll=0,0 / min-luma=0 / max-luma=1023 / log2-max-poc-lsb=8 / vui-timing-info / vui-hrd-info / slices=1 / no-opt-qp-pps / no-opt-ref-list-length-pps / no-multi-pass-opt-rps / scenecut-bias=0.05 / hist-threshold=0.01 / no-opt-cu-delta-qp / no-aq-motion / no-hdr10 / no-hdr10-opt / no-dhdr10-opt / no-idr-recovery-sei / analysis-reuse-level=0 / analysis-save-reuse-level=0 / analysis-load-reuse-level=0 / scale-factor=0 / refine-intra=0 / refine-inter=0 / refine-mv=1 / refine-ctu-distortion=0 / no-limit-sao / ctu-info=0 / no-lowpass-dct / refine-analysis-type=0 / copy-pic=1 / max-ausize-factor=1.0 / no-dynamic-refine / no-single-sei / no-hevc-aq / no-svt / no-field / qp-adaptation-range=1.00 / no-scenecut-aware-qpconformance-window-offsets / right=0 / bottom=0
Language                                 : English
Default                                  : Yes
Forced                                   : No
Color range                              : Limited
Color primaries                          : BT.709
Transfer characteristics                 : BT.709
Matrix coefficients                      : BT.709

Audio #1
ID                                       : 2
Format                                   : AC-3
Format/Info                              : Audio Coding 3
Commercial name                          : Dolby Digital
Codec ID                                 : A_AC3
Duration                                 : 1 h 58 min
Bit rate mode                            : Constant
Bit rate                                 : 384 kb/s
Channel(s)                               : 6 channels
Channel layout                           : L R C LFE Ls Rs
Sampling rate                            : 48.0 kHz
Frame rate                               : 31.250 FPS (1536 SPF)
Compression mode                         : Lossy
Stream size                              : 327 MiB (4%)
Title                                    : / 5.1 Ch / 384 kbps / ПД
Language                                 : Ukrainian
Service kind                             : Complete Main
Default                                  : Yes
Forced                                   : Yes

Audio #2
ID                                       : 3
Format                                   : E-AC-3
Format/Info                              : Enhanced AC-3
Commercial name                          : Dolby Digital Plus
Format profile                           : Blu-ray Disc
Codec ID                                 : A_EAC3
Duration                                 : 1 h 58 min
Bit rate mode                            : Constant
Bit rate                                 : 1 536 kb/s
Channel(s)                               : 6 channels
Channel(s)_Original                      : 8 channels
ChannelLayout_Original                   : L R C LFE Ls Rs Lrs Rrs
Sampling rate                            : 48.0 kHz
Frame rate                               : 31.250 FPS (1536 SPF)
Compression mode                         : Lossy
Delay relative to video                  : 24 ms
Stream size                              : 1.28 GiB (17%)
Title                                    : E- / 7.1 Ch / 1536 kbps / Original
Language                                 : English
Service kind                             : Complete Main
Default                                  : No
Forced                                   : No

Audio #3
ID                                       : 4
Format                                   : AC-3
Format/Info                              : Audio Coding 3
Commercial name                          : Dolby Digital
Codec ID                                 : A_AC3
Duration                                 : 1 h 58 min
Bit rate mode                            : Constant
Bit rate                                 : 192 kb/s
Channel(s)                               : 2 channels
Channel layout                           : L R
Sampling rate                            : 48.0 kHz
Frame rate                               : 31.250 FPS (1536 SPF)
Compression mode                         : Lossy
Delay relative to video                  : 24 ms
Stream size                              : 163 MiB (2%)
Title                                    : / 2.0 Ch / 192 kbps / Original / Commentary by Director/Co-Writer Sam Mendes
Language                                 : English
Service kind                             : Complete Main
Default                                  : No
Forced                                   : No

Audio #4
ID                                       : 5
Format                                   : AC-3
Format/Info                              : Audio Coding 3
Commercial name                          : Dolby Digital
Codec ID                                 : A_AC3
Duration                                 : 1 h 58 min
Bit rate mode                            : Constant
Bit rate                                 : 192 kb/s
Channel(s)                               : 2 channels
Channel layout                           : L R
Sampling rate                            : 48.0 kHz
Frame rate                               : 31.250 FPS (1536 SPF)
Compression mode                         : Lossy
Delay relative to video                  : 24 ms
Stream size                              : 163 MiB (2%)
Title                                    : / 2.0 Ch / 192 kbps / Original / Commentary by Director of Photography Roger Deakins
Language                                 : English
Service kind                             : Complete Main
Default                                  : No
Forced                                   : No

Text #1
ID                                       : 6
Format                                   : UTF-8
Codec ID                                 : S_TEXT/UTF8
Codec ID/Info                            : UTF-8 Plain Text
Duration                                 : 1 h 48 min
Bit rate                                 : 0 b/s
Count of elements                        : 25
Stream size                              : 805 Bytes (0%)
Title                                    : Forced
Language                                 : Ukrainian
Default                                  : Yes
Forced                                   : Yes

Text #2
ID                                       : 7
Format                                   : UTF-8
Codec ID                                 : S_TEXT/UTF8
Codec ID/Info                            : UTF-8 Plain Text
Duration                                 : 1 h 45 min
Bit rate                                 : 36 b/s
Count of elements                        : 1093
Stream size                              : 28.0 KiB (0%)
Title                                    : Full
Language                                 : English
Default                                  : No
Forced                                   : No

Text #3
ID                                       : 8
Format                                   : UTF-8
Codec ID                                 : S_TEXT/UTF8
Codec ID/Info                            : UTF-8 Plain Text
Duration                                 : 1 h 58 min
Bit rate                                 : 41 b/s
Count of elements                        : 1473
Stream size                              : 36.0 KiB (0%)
Title                                    : SDH
Language                                 : English
Default                                  : No
Forced                                   : No

Text #4
ID                                       : 9
Format                                   : UTF-8
Codec ID                                 : S_TEXT/UTF8
Codec ID/Info                            : UTF-8 Plain Text
Duration                                 : 1 h 58 min
Bit rate                                 : 75 b/s
Count of elements                        : 1475
Stream size                              : 65.3 KiB (0%)
Title                                    : SDH-Colored
Language                                 : English
Default                                  : No
Forced                                   : No

Menu
00:00:00.000                             : en:Chapter 01
00:05:00.425                             : en:Chapter 02
00:08:20.375                             : en:Chapter 03
00:13:27.640                             : en:Chapter 04
00:16:39.790                             : en:Chapter 05
00:23:33.495                             : en:Chapter 06
00:30:29.661                             : en:Chapter 07
00:35:35.550                             : en:Chapter 08
00:42:26.377                             : en:Chapter 09
00:51:35.092                             : en:Chapter 10
00:56:37.311                             : en:Chapter 11
01:02:30.080                             : en:Chapter 12
01:06:34.574                             : en:Chapter 13
01:12:05.321                             : en:Chapter 14
01:19:46.198                             : en:Chapter 15
01:28:48.823                             : en:Chapter 16
01:33:44.452                             : en:Chapter 17
01:38:12.595                             : en:Chapter 18
01:41:44.682                             : en:Chapter 19
01:49:47.581                             : en:Chapter 20
Світлини




Джерело: &
Особиста оцінка: 10 - без зайвих вагань рекомендую всім!


 Трекер:    Зареєстрований   

Завантажити / скачати фільм українською



відео для новачків



 Зареєстрований:   2020-06-04 01:47
 Розмір:   7.47 GB 
 Оцінка фільму:   9.6/10 (Голосів: 27)
   
Інші релізи
   1917 / 1917 (2019) 1080p H.265 HDR Ukr/Eng | Sub Eng -Star-Lord-  13 / 0   12.2 GB   2020-06-04 01:45 
   1917 / 1917 (2019) UHD Remux 4K 2160p Ukr/Eng | Sub Eng antik_2008  11 / 0   62.51 GB   2020-05-30 21:28 
   1917 / 1917 (2019) Ukr/Eng antik_2008  31 / 0   2.17 GB   2020-05-30 16:47 
   1917 / 1917 (2019) Remux 1080p Ukr/Eng | Sub Eng MakRA  5 / 0   32.56 GB   2020-05-30 16:20 
   1917 / 1917 (2019) 1080p Ukr/Eng | Sub Eng antik_2008  22 / 0   12.29 GB   2020-05-30 15:47 
   1917 / 1917 (2019) AVC Ukr/Eng | sub Eng Jatx_11  28 / 0   2.29 GB   2020-05-30 15:25 
   1917 / 1917 (2019) 720p Ukr/Eng | Sub Eng 11FrYkT  16 / 0   5.68 GB   2020-05-30 14:15 
Zabiyaka20101982 
Новенький


З нами з: 15.03.20
Востаннє: 17.05.20
Повідомлень: 1

2020-04-05 13:28  
А де переклад?
MakRA 
VIP


З нами з: 11.11.18
Востаннє: 26.09.20
Повідомлень: 1120

2020-04-05 13:33  
Zabiyaka20101982 написано:
А де перевод?

Anonymous написано:

Аудіо # 1:
мова: українська
переклад: професійний дубльований
кодек: AC-3 2.0
бітрейт: 192 кб/с

FujiSan_UA 
Новенький


З нами з: 06.01.20
Востаннє: 24.09.20
Повідомлень: 3

2020-04-13 22:50  
Не витрачайте час.
Anonymous 







2020-04-13 22:55  
FujiSan_UA
Не погоджуся, фільм крутий!

подвох 
Частий відвідувач


З нами з: 29.03.18
Востаннє: 23.09.20
Повідомлень: 47

2020-04-14 19:52  
very good

Додано через 5 хвилин 18 секунд:

FujiSan_UA написано:
Не витрачайте час.

на цей комент

FujiSan_UA 
Новенький


З нами з: 06.01.20
Востаннє: 24.09.20
Повідомлень: 3

2020-04-14 20:33  
Anonymous
Чим саме сподобалася фільм?

Mediaphag 
Новенький


З нами з: 09.11.16
Востаннє: 25.09.20
Повідомлень: 5

2020-04-15 20:49  
Моно?
deemonmeister 
Частий відвідувач


З нами з: 24.02.15
Востаннє: 25.09.20
Повідомлень: 45

2020-08-25 19:58  
Пафосне та нудне кіно. Жахливі персонажі. Актори переграють. Переклад на українську теж не дуже. Переключив на оригінал але вже після першої третини все одно перемотував. Ледь додивився до половини та видалив. Марно витрачений час. Категорічно не раджу дивитись. На цю тему багато гарних фільмів - але це не той випадок.
Ваш часовий пояс: GMT + 2 Години

Нова тема   Відповісти