Малхолланд Драйв / Mulholland Dr. (2001) 1080p H.265 Ukr/Eng | Sub Eng

Нові коментарі

Нова тема   Відповісти
Автор Повідомлення
Anonymous 







2020-04-04 13:36  
Малхолланд Драйв / Mulholland Dr. (2001) 1080p H.265 Ukr/Eng | Sub Eng

Малхолланд Драйв / Mulholland Dr. (2001) 1080p H.265 Ukr/Eng | Sub Eng


Жанр: драма, трилер, детектив
Країна: США, Франція
Кінокомпанія: Les Films Alain Sarde, Asymmetrical Productions, Babbo Inc., Canal+, The Picture Factory
Режисер: Девід Лінч
Актори: Джастін Теро (Justin Theroux), Наомі Воттс (Naomi Watts), Лора Елена Херрінг (Laura Elena Harring), Енн Міллер (Ann Miller), Ден Хедайя (Dan Hedaya), Марк Пеллегріно (Mark Pellegrino) та інші.

Сюжет:
Після жахливої катастрофи на звивистій дорозі Малхолланд-драйв живою залишається лише прекрасна темноволоса незнайомка. Переживши глибокий шок і втрату пам'яті, вона ховається в пустій квартирі, де її знаходить Дайан Селвін, яка приїхала подивитися на розкішний і звабливий Лос-Анджелес. Щиро співчуваючи своїй новій подрузі, яка назвалася Ритою, Дайан готова допомогти їй пригадати, хто вона і що з нею трапилося. Маючи тверді наміри знайти відповіді на всі свої питання, дівчата виходять з дому, прямуючи назустріч темним, лякаючим таємницям засліплюючого Міста Ангелів…

Тривалість: 02:26:34
Якість:

Відео:
кодек: H.265 (HEVC)
розмір кадру: 1920 x 1038
бітрейт: 9 301 кб/с
бітова глибина: 10 біт

Увага! Перед завантаженням переконайтесь, що ваш пристрій відтворення (та/або ПЗ) підтримує H.265 (HEVC)

Аудіо # 1:
мова: українська
переклад: багатоголосий закадровий
кодек: AC-3 5.1
бітрейт: 384 кб/с

Аудіо # 2:
мова: англійська
переклад: оригінал
кодек: 5.1
бітрейт: 1510 кб/с

Субтитри # 1: (Full)
мова: англійська
тип: програмні (м'які)
формат: *.srt


Info
Код:
General
Unique ID                                : 129626945628958115357840082931263410435 (0x61853DDAB7E3964DE28BE548EA271103)
Complete name                            : Mulholland Dr. (2001) 1080p H.265 [UKR_ENG] [Hurtom].
Format                                   :
Format version                           : Version 4
File size                                : 11.5 GiB
Duration                                 : 2 h 26 min
Overall bit rate                         : 11.2 Mb/s
Movie name                               : Малхолланд Драйв / Mulholland Dr. (2001)
Encoded date                             : UTC 2020-04-04 10:26:11
Writing application                      : v20.0.0 ('I Am The Sun') 64-bit
Writing library                          : libebml v1.3.5 + v1.4.8
Cover                                    : Yes
Attachments                              : Cover.jpg

Video
ID                                       : 1
Format                                   : HEVC
Format/Info                              : High Efficiency Video Coding
Format profile                           : Main [email protected]@High
Codec ID                                 : V_MPEGH/ISO/HEVC
Duration                                 : 2 h 26 min
Bit rate                                 : 9 301 kb/s
Width                                    : 1 920 pixels
Height                                   : 1 038 pixels
Display aspect ratio                     : 1.85:1
Frame rate mode                          : Constant
Frame rate                               : 23.976 (24000/1001) FPS
Color space                              : YUV
Chroma subsampling                       : 4:2:0
Bit depth                                : 10 bits
Bits/(Pixel*Frame)                       : 0.195
Stream size                              : 9.52 GiB (83%)
Title                                    : Малхолланд Драйв / Mulholland Dr. (2001)
Writing library                          : x265 3.1+7-147fb92c5ed5:[Windows][clang 8.0.0][64 bit] 10bit
Encoding settings                        : cpuid=1111039 / frame-threads=13 / wpp / no-pmode / no-pme / no-psnr / no-ssim / log-level=3 / input-csp=1 / input-res=1920x1038 / interlace=0 / total-frames=0 / level-idc=41 / high-tier=1 / uhd-bd=0 / ref=5 / allow-non-conformance / no-repeat-headers / annexb / no-aud / no-hrd / info / hash=0 / no-temporal-layers / open-gop / min-keyint=23 / keyint=240 / gop-lookahead=0 / bframes=8 / b-adapt=2 / b-pyramid / bframe-bias=0 / rc-lookahead=60 / lookahead-slices=4 / scenecut=60 / radl=0 / no-splice / no-intra-refresh / ctu=64 / min-cu-size=8 / rect / amp / max-tu-size=32 / tu-inter-depth=4 / tu-intra-depth=4 / limit-tu=4 / rdoq-level=2 / dynamic-rd=0.00 / no-ssim-rd / signhide / no-tskip / nr-intra=0 / nr-inter=0 / no-constrained-intra / no-strong-intra-smoothing / max-merge=5 / limit-refs=1 / limit-modes / me=3 / subme=7 / merange=57 / temporal-mvp / no-hme / weightp / weightb / no-analyze-src-pics / deblock=-3:-3 / no-sao / no-sao-non-deblock / rd=6 / no-early-skip / no-rskip / no-fast-intra / no-tskip-fast / no-cu-lossless / b-intra / no-splitrd-skip / rdpenalty=0 / psy-rd=2.00 / psy-rdoq=1.00 / no-rd-refine / no-lossless / cbqpoffs=0 / crqpoffs=0 / rc=crf / crf=20.0 / qcomp=0.60 / qpstep=4 / stats-write=0 / stats-read=0 / vbv-maxrate=50000 / vbv-bufsize=50000 / vbv-init=0.9 / crf-max=30.0 / crf-min=0.0 / ipratio=1.40 / pbratio=1.30 / aq-mode=2 / aq-strength=1.00 / no-cutree / zone-count=0 / no-strict-cbr / qg-size=32 / no-rc-grain / qpmax=69 / qpmin=0 / no-const-vbv / sar=1 / overscan=0 / videoformat=5 / range=0 / colorprim=1 / transfer=1 / colormatrix=1 / chromaloc=0 / display-window=0cll=0,0 / min-luma=0 / max-luma=1023 / log2-max-poc-lsb=8 / vui-timing-info / vui-hrd-info / slices=1 / no-opt-qp-pps / no-opt-ref-list-length-pps / no-multi-pass-opt-rps / scenecut-bias=0.05 / no-opt-cu-delta-qp / no-aq-motion / no-hdr / no-hdr-opt / no-dhdr10-opt / no-idr-recovery-sei / analysis-reuse-level=5 / scale-factor=0 / refine-intra=0 / refine-inter=0 / refine-mv=0 / refine-ctu-distortion=0 / no-limit-sao / ctu-info=0 / no-lowpass-dct / refine-analysis-type=259 / copy-pic=1 / max-ausize-factor=1.0 / no-dynamic-refine / no-single-sei / no-hevc-aq / no-svt / no-field / qp-adaptation-range=1.00
Default                                  : Yes
Forced                                   : No
Color range                              : Limited
Color primaries                          : BT.709
Transfer characteristics                 : BT.709
Matrix coefficients                      : BT.709

Audio #1
ID                                       : 2
Format                                   : AC-3
Format/Info                              : Audio Coding 3
Commercial name                          : Dolby Digital
Codec ID                                 : A_AC3
Duration                                 : 2 h 26 min
Bit rate mode                            : Constant
Bit rate                                 : 384 kb/s
Channel(s)                               : 6 channels
Channel layout                           : L R C LFE Ls Rs
Sampling rate                            : 48.0 kHz
Frame rate                               : 31.250 FPS (1536 SPF)
Compression mode                         : Lossy
Stream size                              : 403 MiB (3%)
Title                                    : / 5.1 Ch / 384 kbps / БЗ / Kanal Ukraina
Language                                 : Ukrainian
Service kind                             : Complete Main
Default                                  : Yes
Forced                                   : Yes

Audio #2
ID                                       : 3
Format                                   :
Format/Info                              : Digital Theater Systems
Codec ID                                 : A_DTS
Duration                                 : 2 h 26 min
Bit rate mode                            : Constant
Bit rate                                 : 1 509 kb/s
Channel(s)                               : 6 channels
Channel layout                           : C L R Ls Rs LFE
Sampling rate                            : 48.0 kHz
Frame rate                               : 93.750 FPS (512 SPF)
Bit depth                                : 16 bits
Compression mode                         : Lossy
Delay relative to video                  : 11 ms
Stream size                              : 1.54 GiB (13%)
Title                                    : / 5.1 Ch / 1509 kbps / Original
Language                                 : English
Default                                  : No
Forced                                   : No

Text
ID                                       : 4
Format                                   : UTF-8
Codec ID                                 : S_TEXT/UTF8
Codec ID/Info                            : UTF-8 Plain Text
Duration                                 : 2 h 17 min
Bit rate                                 : 30 b/s
Count of elements                        : 970
Stream size                              : 30.6 KiB (0%)
Title                                    : Full
Language                                 : English
Default                                  : No
Forced                                   : No

Menu
00:00:00.000                             : en:Chapter 1
00:01:19.237                             : en:Chapter 2
00:02:24.093                             : en:Chapter 3
00:07:13.966                             : en:Chapter 4
00:09:25.556                             : en:Chapter 5
00:11:11.537                             : en:Chapter 6
00:11:40.733                             : en:Chapter 7
00:15:01.934                             : en:Chapter 8
00:15:19.785                             : en:Chapter 9
00:16:42.409                             : en:Chapter 10
00:17:43.512                             : en:Chapter 11
00:17:50.143                             : en:Chapter 12
00:19:55.977                             : en:Chapter 13
00:21:55.347                             : en:Chapter 14
00:23:29.733                             : en:Chapter 15
00:25:04.619                             : en:Chapter 16
00:27:26.678                             : en:Chapter 17
00:28:20.899                             : en:Chapter 18
00:31:00.808                             : en:Chapter 19
00:34:53.666                             : en:Chapter 20
00:36:21.253                             : en:Chapter 21
00:40:52.566                             : en:Chapter 22
00:43:06.909                             : en:Chapter 23
00:44:23.110                             : en:Chapter 24
00:44:46.550                             : en:Chapter 25
00:48:33.193                             : en:Chapter 26
00:53:06.591                             : en:Chapter 27
00:54:09.237                             : en:Chapter 28
00:55:32.445                             : en:Chapter 29
00:57:42.158                             : en:Chapter 30
00:59:33.561                             : en:Chapter 31
01:05:21.700                             : en:Chapter 32
01:05:58.154                             : en:Chapter 33
01:09:16.018                             : en:Chapter 34
01:10:59.163                             : en:Chapter 35
01:13:25.017                             : en:Chapter 36
01:27:26.732                             : en:Chapter 37
01:37:27.750                             : en:Chapter 38
01:43:44.584                             : en:Chapter 39
01:44:42.684                             : en:Chapter 40
01:52:12.634                             : en:Chapter 41
01:52:55.802                             : en:Chapter 42
01:56:14.250                             : en:Chapter 43
01:57:45.758                             : en:Chapter 44
01:58:51.240                             : en:Chapter 45
02:00:40.933                             : en:Chapter 46
02:06:40.292                             : en:Chapter 47
02:08:03.792                             : en:Chapter 48
02:14:15.622                             : en:Chapter 49
02:14:51.825                             : en:Chapter 50
02:16:08.735                             : en:Chapter 51
02:16:54.572                             : en:Chapter 52
02:17:27.439                             : en:Chapter 53
02:18:52.524                             : en:Chapter 54
02:18:58.821                             : en:Chapter 55
02:19:05.745                             : en:Chapter 56
Світлини




Джерело: &
Особиста оцінка: 0 - не дивився


Срібний реліз (на рейтинг впливає 50% завантаженого)
 Трекер:    Зареєстрований   

Завантажити / скачати фільм українською



відео для новачків



 Зареєстрований:   2020-04-04 13:36
 Розмір:   11.46 GB 
 Оцінка фільму:   7.9/10 (Голосів: 19)
   
Інші релізи
vash1 
VIP


З нами з: 16.03.16
Востаннє: 21.09.20
Повідомлень: 263

2020-04-04 15:50  
Це ж хто одиницю цьому чудовому фільму поставив? Happy


vash1 
VIP


З нами з: 16.03.16
Востаннє: 21.09.20
Повідомлень: 263

2020-04-04 19:09  
знаючи що у вас якість понад усе -

в мене звідкись в колекціі є реліз від Criterion @ 7000 kbps
можливо з 1337

там дуже хороша реставрація і якість відео значно краща

Едм 
VIP


З нами з: 18.05.08
Востаннє: 18.09.20
Повідомлень: 1252

2020-04-04 22:16  
Та що таке, спеціально шукав цей фільм, а виявляється є краща якість. Відпишіть сюди, будь ласка, якщо реліз буде зміненено
Anonymous 







2020-04-04 22:37  
vash1 написано:
Mulholland Dr

Наскільки мені відомо, то ріп зроблено з цього джерела -
Код:
http://rutor.info/torrent/474398/malholland-drajv_mulholland-dr-2001-Remux-1080p-ot-novalan-criterion-collection
Додано через 3 хвилини 41 секунду:

Є ще Британське видання 4к, там реально хороший ремастер. Можливо, колись сам закодую.

vash1 
VIP


З нами з: 16.03.16
Востаннє: 21.09.20
Повідомлень: 263

2020-04-04 23:28  
Едм, можете взяти тут ріп у HEVC з видання Сriterion про яке я говорив:
https://1337x.to/torrent/3763089/Mulholland-Drive-2001-1080p-Criterion-BluRay-x265-HEVC-EAC3-SARTRE/
Там лише оригінальна доріжка. Тому треба буде додати українську. Ділей рівномірний: +28000 ms.

Але якщо хочете найкращу якість - то тоді краще ремукс від Criterion про який писав -Star-Lord-

Едм 
VIP


З нами з: 18.05.08
Востаннє: 18.09.20
Повідомлень: 1252

2020-04-05 04:58  
vash1
Дякую, підтверджую якість інша, цікаво. Та, з моїми навичками синхронізації знадобиться 28 хвилин праці, тож дякую Anonymous

Ваш часовий пояс: GMT + 2 Години

Нова тема   Відповісти