Maxim Rysanov (Максим Рисанов), Sinfonietta Riga - Peteris Vasks - Viola Concerto & Symphony No. 1 Voices - (2020) [] | Classical / Viola

Нові коментарі

Нова тема   Відповісти
Автор Повідомлення
kolpavel 
VIP


З нами з: 04.05.14
Востаннє: 05.03.21
Повідомлень: 1375

2020-04-03 19:24  
Maxim Rysanov (Максим Рисанов), Sinfonietta Riga - Peteris Vasks - Viola Concerto & Symphony No. 1 Voices - (2020) [] | Classical / Viola

Maxim Rysanov (Максим Рисанов), Sinfonietta Riga - Peteris Vasks - Viola Concerto & Symphony No. 1 Voices - (2020) [] | Classical / Viola



Стиль: Classical
Країна, місто: Україна, Краматорськ.
Сайти: Офіційний сайт
Видавець: BIS Records
Виконавці:
Максим Рисанов - альт, диригент.
Sinfonietta Rīga

Треклист:

    Vasks, Peteris (b.1946) :
    Concerto for Viola & String Orchestra 35:55
    01. I. Andante 8:07
    02. II. Allegro moderato 7:14
    03. III. Andante 10:46
    04. IV. Adagio 9:48

    Symphony No. 1 "Voices" 29:47
    05. I. Voices of Silence 6:14
    06. II. Voices of Life 14:41
    07. III. Voice of Conscience 8:52


Тривалість: 01:05:42
Мова: iнструментальнi композицiї
Аудіо-кодек:
Бітрейт: 2672 - 2972 кб/с
Джерело: трекер
Додаткова інформація:
EAC
foobar2000 1.5.2 / Dynamic Range Meter 1.1.1
log date: 2020-04-02 09:29:17

--------------------------------------------------------------------------------
Analyzed: Sinfonietta Riga & Maxim Rysanov / Pēteris Vasks: Viola Concerto & Symphony No. 1 "Voices"
--------------------------------------------------------------------------------

DR Peak RMS Duration Track
--------------------------------------------------------------------------------
DR13 -4.71 dB -25.59 dB 8:08 01-Concerto for Viola & String Orchestra: I. Andante
DR12 -0.48 dB -17.94 dB 7:15 02-Concerto for Viola & String Orchestra: II. Allegro moderato
DR13 -1.03 dB -18.07 dB 10:46 03-Concerto for Viola & String Orchestra: III. Andante
DR13 -1.23 dB -21.90 dB 9:48 04-Concerto for Viola & String Orchestra: IV. Adagio
DR15 -9.45 dB -31.92 dB 6:14 05-Symphony No. 1 "Voices": I. Voices of Silence
DR11 -0.90 dB -16.72 dB 14:41 06-Symphony No. 1 "Voices": II. Voices of Life
DR12 -0.10 dB -17.31 dB 8:53 07-Symphony No. 1 "Voices": III. Voice of Conscience
--------------------------------------------------------------------------------

Number of tracks: 7
Official DR value: DR13

Samplerate: 96000 Hz
Channels: 2
Bits per sample: 24
Bitrate: 2934 kbps
Codec:
================================================================================


Якщо Ви справді бажаєте підтримати українське - після прослуховування, якщо музика вам сподобалась, придбайте ліцензійний диск. Підтримаймо вітчизняних виконавців!


Срібний реліз (на рейтинг впливає 50% завантаженого)
 Трекер:    Зареєстрований   

Завантажити / скачати українську музику



відео для новачків



 Зареєстрований:   2020-04-03 20:38
 Розмір:   1.32 GB 
 Оцінка музики:   10/10 (Голосів: 3)
   
Pinguin 
VIP


З нами з: 08.04.12
Востаннє: 05.03.21
Повідомлень: 272

2020-04-04 08:06  
kolpavel написано:

Виконавці:
Максим Рисанов - альт, деригент

виправте дИригент

kolpavel 
VIP


З нами з: 04.05.14
Востаннє: 05.03.21
Повідомлень: 1375

2020-04-04 10:23  
Pinguin, мерсi!
Ваш часовий пояс: GMT + 2 Години

Нова тема   Відповісти