Карантин / Quarantine (2008) 1080p Eng | Sub Ukr/Eng

Нові коментарі

Нова тема   Відповісти
Автор Повідомлення
Anonymous 







2020-04-03 17:39  
Карантин / Quarantine (2008) 1080p Eng | Sub Ukr/Eng


Оригінальний постер:

Карантин / Quarantine (2008) 1080p Eng | Sub Ukr/Eng




Жанр: псевдо-документальний, жахи, трилер
Країна: США



Кінокомпанія: Vertigo Entertainment, Andale Pictures, Filmax Entertainment / Screen Gems
Режисер: Джон Ерік Даудел
Актори: Грег Джерманн, Бернард Вайт, Данія Рамірез, Джей Ернандес, Ендрю Фісцелла, Стів Харріс, Раді Шербеджія, Джонатон Шек, Коламбус Шорт, Дженніфер Карпентер

Сюжет:
Знімальна група телерепортерів, що працюють на місцевий канал новин, відправляються, всім складом, на місце де сталося, на перший погляд, абсолютно неабияка й навіть можна сказати буденна пригода. Але після прибуття вони розуміють, що в результаті отримали репортаж, який вони не захотіли б побачити навіть у своїх найстрашніших, нічних кошмарах! Завдяки жахливого збігом, ця група молодих людей, виявляється абсолютно ізольованою від зовнішнього світу, в закритому будинку, мешканці якого, до всього того ж, ще й заражені страшним смертельним вірусом ...

Тривалість: 01:29:15
Якість:

Відео:
Кодек:
Розмір кадру: 1920x1040
Бітрейт: 12,1 Мбіт/с

Аудіо #1:
Мова: англійська
Переклад: оригінал
Кодек: 5.1
Бітрейт: 640 Кбіт/с

Субтитри #1:
Мова: українська
Тип: програмні (м'які)
Формат: *.srt

Субтитри #2:
Мова: англійська
Тип: програмні (м'які)
Формат: *.srt

Info


General
Unique ID : 120838783030457109838977332154088989032 (0x5AE8B3FC467FEB0014A658CD9482A168)
Format :
Format version : Version 4
File size : 7.94 GiB
Duration : 1 h 29 min
Overall bit rate : 12.7 Mb/s
Movie name : Quarantine (2008) 1080p Eng SubUkrEng [Hurtom]
Encoded date : UTC 2020-04-03 01:25:06
Writing application : v44.0.0 ('Domino') 64-bit
Writing library : libebml v1.3.10 + v1.5.2
Cover : Yes
Attachments : cover.jpg

Video
ID : 1
Format : AVC
Format/Info : Advanced Video Codec
Format profile : [email protected]
Format settings : CABAC / 4 Ref Frames
Format settings, CABAC : Yes
Format settings, Reference fra : 4 frames
Codec ID : V_MPEG4/ISO/AVC
Duration : 1 h 29 min
Bit rate : 12.1 Mb/s
Width : 1 920 pixels
Height : 1 040 pixels
Display aspect ratio : 1.85:1
Frame rate mode : Constant
Frame rate : 23.976 FPS
Color space : YUV
Chroma subsampling : 4:2:0
Bit depth : 8 bits
Scan type : Progressive
Bits/(Pixel*Frame) : 0.253
Stream size : 7.54 GiB (95%)
Title : 1080p @ 12.1 Мбіт/с
Writing library : core 66 r1114 a933a3e
Encoding settings : cabac=1 / ref=4 / deblock=1:0:0 / analyse=0x3:0x133 / me=umh / subme=7 / psy_rd=1.0:0.0 / mixed_ref=1 / me_range=16 / chroma_me=1 / trellis=1 / 8x8dct=1 / cqm=0 / deadzone=21,11 / chroma_qp_offset=-2 / threads=6 / nr=0 / decimate=1 / mbaff=0 / bframes=3 / b_pyramid=1 / b_adapt=1 / b_bias=0 / direct=1 / wpredb=1 / keyint=250 / keyint_min=25 / scenecut=40(pre) / rc=2pass / bitrate=12104 / ratetol=1.0 / qcomp=0.60 / qpmin=10 / qpmax=51 / qpstep=4 / cplxblur=20.0 / qblur=0.5 / ip_ratio=1.40 / pb_ratio=1.30 / aq=1:1.00
Language : English
Default : Yes
Forced : No

Audio
ID : 2
Format : AC-3
Format/Info : Audio Coding 3
Commercial name : Dolby Digital
Codec ID : A_AC3
Duration : 1 h 29 min
Bit rate mode : Constant
Bit rate : 640 kb/s
Channel(s) : 6 channels
Channel layout : L R C LFE Ls Rs
Sampling rate : 48.0 kHz
Frame rate : 31.250 FPS (1536 SPF)
Bit depth : 16 bits
Compression mode : Lossy
Stream size : 409 MiB (5%)
Title : [Оригінал] 5.1 @ 640 Кбіт/с
Language : English
Service kind : Complete Main
Default : Yes
Forced : No

Text #1
ID : 3
Format : UTF-8
Codec ID : S_TEXT/UTF8
Codec ID/Info : UTF-8 Plain Text
Duration : 1 h 26 min
Bit rate : 74 b/s
Count of elements : 1166
Stream size : 47.0 KiB (0%)
Title : Повні
Language : Ukrainian
Default : Yes
Forced : No

Text #2
ID : 4
Format : UTF-8
Codec ID : S_TEXT/UTF8
Codec ID/Info : UTF-8 Plain Text
Duration : 1 h 22 min
Bit rate : 74 b/s
Count of elements : 1410
Stream size : 45.1 KiB (0%)
Title : Full
Language : English
Default : No
Forced : No
Скріншоти






Джерело: &

Постер bilenkuyboy


 Трекер:    Зареєстрований   

Завантажити / скачати фільм українською



відео для новачків



 Зареєстрований:   2020-04-03 17:39
 Розмір:   7.94 GB 
 Оцінка фільму:   10/10 (Голосів: 1)
   
Інші релізи
   Карантин / Quarantine (2008) 1080p Ukr/Eng | Sub Ukr/Eng Вояка Schweik  0 / 0   7.06 GB   2020-07-14 19:24 
   Карантин / Quarantine (2008) AVC Ukr/Eng | Sub Ukr/Eng Вояка Schweik  4 / 0   1.48 GB   2020-07-13 19:45 
   Карантин / Quarantine (2008) Eng | sub Ukr/Eng TheDarkKnight08  1 / 0   1.46 GB   2014-05-08 20:45 
igor911 
Модератор відео


З нами з: 18.01.08
Востаннє: 24.11.20
Повідомлень: 15080

2020-04-03 19:50  
В цьому розділі хоча б один скріншот має бути з українськими субтитрами ( https://toloka.to/t30791 )

Додано через 1 хвилину 28 секунд:

Цитата:
Кодек: H264(AVC)

виправити на
Цитата:
Мова: укрїнська

Ваш часовий пояс: GMT + 2 Години

Нова тема   Відповісти