Утікачі / Les Fugitifs (1986) 1080p H.265 Fre | Sub Ukr/Fre

Нові коментарі

Нова тема   Відповісти
Останній раз роздавалося milukh (2020-04-07)
Автор Повідомлення
Anonymous 







2020-04-03 02:48  
Утікачі / Les Fugitifs (1986) 1080p H.265 Fre | Sub Ukr/Fre

Утікачі / Les Fugitifs (1986) 1080p H.265 Fre | Sub Ukr/Fre


Жанр: комедія, кримінальний, драма
Країна: Франція
Кінокомпанія: Gaumont
Режисер: Франсіс Вебер / Francis Veber
Актори: П'єр Рішар / Pierre Richard, Жерар Депардьє / Gerard Depardieu, Жон Карме / Jean Carmet, Моріс Бар'є / Maurice Barrier, Жон Бенґіґі / Jean Benguigui, Філіп Льольєвр / Philippe Lelièvre, Ролан Бланш / Roland Blanche, Анаїс Бре / Anaïs Bret

Сюжет:
Жан Люка, колишній засуджений за численні пограбування банків, звільняється після п'яти років ув'язнення. Люка сповнений рішучості «кинути» й вести чесне життя, яке не перестає облишати сумнівного комісара Дюрока. Коли він виходить із в'язниці, то продає коштовні речі, які були повернуті йому під час його звільнення з в'язниці, а потім відправляється в банк, щоби депонувати чек, який він отримав од ювеліра...

Тривалість: 01:29:11
Якість:

Відео:
кодек: H.265 (HEVC)
розмір кадру: 1918 x 1080
бітрейт: 11 621 кб/с
бітова глибина: 10 біт

Увага! Перед завантаженням переконайтесь, що ваш пристрій відтворення (та/або ПЗ) підтримує H.265 (HEVC)

Аудіо # 1:
мова: французька
переклад: оригінал
кодек: AC-3 2.0
бітрейт: 224 кб/с

Субтитри # 1: (Full by 123098, edited by -Star-Lord-)
мова: українська
тип: програмні (м'які)
формат: *.srt

Субтитри # 2: (Full)
мова: французька
тип: програмні (м'які)
формат: *.srt


Info
Код:
General
Unique ID                                : 264240212516025465500707251543604739900 (0xC6CAD053DBE4279A23950AA9C8583F3C)
Complete name                            : Les Fugitifs (1986) 1080p [FRE] [Hurtom].
Format                                   :
Format version                           : Version 4
File size                                : 7.38 GiB
Duration                                 : 1 h 29 min
Overall bit rate                         : 11.8 Mb/s
Movie name                               : Утікачі / Les Fugitifs (1986)
Encoded date                             : UTC 2020-04-03 00:37:39
Writing application                      : v20.0.0 ('I Am The Sun') 64-bit
Writing library                          : libebml v1.3.5 + v1.4.8
Cover                                    : Yes
Attachments                              : Cover.jpg

Video
ID                                       : 1
Format                                   : HEVC
Format/Info                              : High Efficiency Video Coding
Format profile                           : Main [email protected]@High
Codec ID                                 : V_MPEGH/ISO/HEVC
Duration                                 : 1 h 29 min
Bit rate                                 : 11.6 Mb/s
Width                                    : 1 918 pixels
Height                                   : 1 080 pixels
Display aspect ratio                     : 16:9
Frame rate mode                          : Constant
Frame rate                               : 24.000 FPS
Color space                              : YUV
Chroma subsampling                       : 4:2:0
Bit depth                                : 10 bits
Bits/(Pixel*Frame)                       : 0.234
Stream size                              : 7.24 GiB (98%)
Title                                    : Утікачі / Les Fugitifs (1986)
Writing library                          : x265 3.3+1-g554c887ac:[Windows][MSVC 1924][64 bit] 10bit
Encoding settings                        : cpuid=1111039 / frame-threads=3 / numa-pools=12 / wpp / no-pmode / no-pme / no-psnr / no-ssim / log-level=2 / input-csp=1 / input-res=1918x1080 / interlace=0 / total-frames=128433 / level-idc=41 / high-tier=1 / uhd-bd=0 / ref=5 / no-allow-non-conformance / no-repeat-headers / annexb / no-aud / no-hrd / info / hash=0 / no-temporal-layers / open-gop / min-keyint=24 / keyint=240 / gop-lookahead=0 / bframes=8 / b-adapt=2 / b-pyramid / bframe-bias=0 / rc-lookahead=60 / lookahead-slices=4 / scenecut=40 / hist-scenecut=0 / radl=0 / no-splice / no-intra-refresh / ctu=32 / min-cu-size=8 / rect / amp / max-tu-size=32 / tu-inter-depth=4 / tu-intra-depth=4 / limit-tu=1 / rdoq-level=2 / dynamic-rd=0.00 / no-ssim-rd / signhide / no-tskip / nr-intra=0 / nr-inter=0 / no-constrained-intra / no-strong-intra-smoothing / max-merge=4 / limit-refs=2 / limit-modes / me=3 / subme=7 / merange=57 / temporal-mvp / no-frame-dup / no-hme / weightp / weightb / no-analyze-src-pics / deblock=-3:-3 / no-sao / no-sao-non-deblock / rd=6 / selective-sao=0 / no-early-skip / no-rskip / no-fast-intra / no-tskip-fast / no-cu-lossless / no-b-intra / no-splitrd-skip / rdpenalty=0 / psy-rd=2.00 / psy-rdoq=1.00 / no-rd-refine / no-lossless / cbqpoffs=0 / crqpoffs=0 / rc=crf / crf=20.0 / qcomp=0.65 / qpstep=4 / stats-write=0 / stats-read=0 / vbv-maxrate=50000 / vbv-bufsize=50000 / vbv-init=0.9 / crf-max=0.0 / crf-min=0.0 / ipratio=1.40 / pbratio=1.30 / aq-mode=1 / aq-strength=1.00 / no-cutree / zone-count=0 / no-strict-cbr / qg-size=32 / no-rc-grain / qpmax=69 / qpmin=0 / no-const-vbv / sar=1 / overscan=0 / videoformat=5 / range=0 / colorprim=1 / transfer=1 / colormatrix=1 / chromaloc=0 / display-window=0 / cll=0,0 / min-luma=0 / max-luma=1023 / log2-max-poc-lsb=8 / vui-timing-info / vui-hrd-info / slices=1 / no-opt-qp-pps / no-opt-ref-list-length-pps / no-multi-pass-opt-rps / scenecut-bias=0.05 / hist-threshold=0.01 / no-opt-cu-delta-qp / no-aq-motion / no-hdr10 / no-hdr10-opt / no-dhdr10-opt / no-idr-recovery-sei / analysis-reuse-level=0 / analysis-save-reuse-level=0 / analysis-load-reuse-level=0 / scale-factor=0 / refine-intra=0 / refine-inter=0 / refine-mv=1 / refine-ctu-distortion=0 / no-limit-sao / ctu-info=0 / no-lowpass-dct / refine-analysis-type=0 / copy-pic=1 / max-ausize-factor=1.0 / no-dynamic-refine / no-single-sei / no-hevc-aq / no-svt / no-field / qp-adaptation-range=1.00 / no-scenecut-aware-qpconformance-window-offsets / right=0 / bottom=0
Default                                  : Yes
Forced                                   : No
Color range                              : Limited
Color primaries                          : BT.709
Transfer characteristics                 : BT.709
Matrix coefficients                      : BT.709

Audio
ID                                       : 2
Format                                   : AC-3
Format/Info                              : Audio Coding 3
Commercial name                          : Dolby Digital
Codec ID                                 : A_AC3
Duration                                 : 1 h 29 min
Bit rate mode                            : Constant
Bit rate                                 : 224 kb/s
Channel(s)                               : 2 channels
Channel layout                           : L R
Sampling rate                            : 48.0 kHz
Frame rate                               : 31.250 FPS (1536 SPF)
Compression mode                         : Lossy
Stream size                              : 143 MiB (2%)
Title                                    : / 2.0 Ch / 224 kbps / Original
Language                                 : French
Service kind                             : Complete Main
Default                                  : No
Forced                                   : No

Text #1
ID                                       : 3
Format                                   : UTF-8
Codec ID                                 : S_TEXT/UTF8
Codec ID/Info                            : UTF-8 Plain Text
Duration                                 : 1 h 26 min
Bit rate                                 : 88 b/s
Count of elements                        : 1081
Stream size                              : 55.9 KiB (0%)
Title                                    : Full by 123098, edited by -Star-Lord-
Language                                 : Ukrainian
Default                                  : Yes
Forced                                   : Yes

Text #2
ID                                       : 4
Format                                   : UTF-8
Codec ID                                 : S_TEXT/UTF8
Codec ID/Info                            : UTF-8 Plain Text
Duration                                 : 1 h 26 min
Bit rate                                 : 49 b/s
Count of elements                        : 1042
Stream size                              : 31.4 KiB (0%)
Title                                    : Full
Language                                 : French
Default                                  : No
Forced                                   : No

Menu
00:00:00.000                             : en:Chapter 01
00:07:38.750                             : en:Chapter 02
00:14:07.416                             : en:Chapter 03
00:20:29.125                             : en:Chapter 04
00:30:50.375                             : en:Chapter 05
00:39:40.375                             : en:Chapter 06
00:44:43.708                             : en:Chapter 07
00:53:26.416                             : en:Chapter 08
00:59:07.458                             : en:Chapter 09
01:07:09.083                             : en:Chapter 10
01:15:30.458                             : en:Chapter 11
01:21:29.708                             : en:Chapter 12
01:29:10.250                             : en:Chapter 13
Світлини






Джерело:
Особиста оцінка: 10 - без зайвих вагань рекомендую всім!


Золотий реліз (завантажене не впливає на рейтинг)
 Трекер:    Зареєстрований   

Завантажити / скачати фільм українською



відео для новачків



 Зареєстрований:   2020-04-03 02:48
 Розмір:   7.38 GB 
 Оцінка фільму:   10/10 (Голосів: 2)
   
Інші релізи
   Утікачі / Les Fugitifs (1986) H󠁿DTVRip 360p Fre | Sub Ukr/Fre 123098  0 / 0   1.33 GB   2019-02-10 10:00 
Anonymous 







2020-04-08 23:35  
Переглянув дану стрічку, фільм - бомба. 10 з 10.
bot 
робот


З нами з: 30.09.07
Востаннє: 26.05.05
Повідомлень: 26450

2020-04-09 12:16  
Тему перенесено з Фільми в HD до форуму Фільми


igor911

vash1 
VIP


З нами з: 16.03.16
Востаннє: 04.12.20
Повідомлень: 280

2020-04-24 15:33  
супер-супер! більше старого хорошого кіно!
Ваш часовий пояс: GMT + 2 Години

Нова тема   Відповісти