Святі з Бундока 2: День всіх святих / The Boondock Saints II: All Saints Day (2009) Remux 1080p Eng | Sub Ukr/Eng

Нові коментарі

Нова тема   Відповісти
Автор Повідомлення
MakRA 
VIP


З нами з: 10.11.18
Востаннє: 05.12.20
Повідомлень: 1164

2020-04-03 00:51  
Святі з Бундока 2: День всіх святих / The Boondock Saints II: All Saints Day (2009) Remux 1080p Eng | Sub Ukr/Eng

Святі з Бундока 2: День всіх святих / The Boondock Saints II: All Saints Day (2009) Remux 1080p Eng | Sub Ukr/Eng


Жанр: екшн, кримінальний
Країна: США



Кінокомпанія: Stage 6 Films
Режисер: Трой Даффі [Troy Duffy]
Актори: Шон Патрік Фленері [Sean Patrick Flanery], Норман Рідус [Norman Reedus], Джулі Бензі [Julie Benz], Кліфтон Коллінз-молодший [Clifton Collins Jr.], Девід Делла Роккоі [David Della Rocco], Біллі Коноллі [Billy Connolly], Девід Феррі [David Ferry] Брайан Махоуні [Brian Mahoney], Пітер Фонда [], Боб Марлі [Bob Marley]

Сюжет:
Останні 8 років брати жили разом з батьком на фермі в Ірландії. Одного разу їх дядько розповідає їм про чутки, що вони причетні до вбивства католицького священика в Бостоні. Хлопці повертаються до Бостона, щоб очистити свою зіпсовану репутацію, і знайти людей, які їх підставили.


Цікаве про фільм та зйомки:

-Роль одного зі спецназівців грає фанат фільму, який виграв у конкурсі на офіційному сайті.
-Джиммі «Fat Hand» Джексон, який згадується у фінальних титрах, був давнім другом Троя Даффі і барабанщиком в групі Boondock Saints, він боровся з пухлиною головного мозку і йому було зроблено багато хірургічних операцій. Після зйомок фільму, були продані гільзи від куль, а виручені гроші були передані йому на лікування.
-Пісня, що звучала під час бою мексиканця Ромео з французом на кораблі - «Мангуст» групи «Fu Manchu».


Тривалість: 01:57:31
Якість: Remux 1080p
Відео:
кодек:
розмір кадру: 1920 х 1080
бітрейт: 24,9 Mб/с

Аудіо # 1:
мова: англійська
переклад: оригінал
кодек: -HD MA 5.1
бітрейт: 2821 б/с

Аудіо # 2:
мова: англійська
переклад: оригінал
кодек: 5.1
бітрейт: 640 кб/с

Аудіо # 3:
мова: англійська
переклад: Commentary with Writer/Director Troy Duffy and actors Sean Patrick Flanery, Norman Reedus and Billy Connolly
кодек: 2.0
бітрейт: 192 кб/с

Аудіо # 4:
мова: англійська
переклад: Commentary with Writer/Director Troy Duffy and actor Willem Dafoe
кодек: 2.0
бітрейт: 192 кб/с

Субтитри # 1:
мова: українська
тип: пререндерні
формат: *.pgs

Субтитри # 2: (Full)
мова: англійська
тип: програмні (м'які)
формат: *.srt

Субтитри # 3-4: (Full)
мова: англійська
тип: пререндерні
формат: *.pgs

Субтитри # 5: (Full) | Commentary with Writer/Director Troy Duffy and actors Sean Patrick Flanery, Norman Reedus and Billy Connolly
мова: англійська
тип: пререндерні
формат: *.pgs

Субтитри # 5: (Full) | Commentary with Writer/Director Troy Duffy and actor Willem Dafoe
мова: англійська
тип: пререндерні
формат: *.pgs

Збережено оригінальні розділи, як на Blu-ray.
Info
General
Unique ID : 336929108251629945695838635375076341657 (0xFD7A2F954A80A13B4CF9AA45759C7799)
Complete name : I:\The Boondock Saints. Dilogy (1999-2009) Remux 1080p [Hurtom]\The Boondock Saints II All Saints Day (2009) Remux 1080p Eng Sub UkrEng [Hurtom].
Format :
Format version : Version 4
File size : 23.6 GiB
Duration : 1 h 57 min
Overall bit rate mode : Variable
Overall bit rate : 28.8 Mb/s
Movie name : Святі з Бундока 2: День всіх святих / The Boondock Saints II: All Saints Day (2009) Remux 1080p Eng | Sub Ukr/Eng [Hurtom]
Encoded date : UTC 2020-04-02 21:31:16
Writing application : v44.0.0 ('Domino') 64-bit
Writing library : libebml v1.3.10 + v1.5.2
Cover : Yes
Attachments : cover.jpg

Video
ID : 1
Format : AVC
Format/Info : Advanced Video Codec
Format profile : [email protected]
Format settings : CABAC / 2 Ref Frames
Format settings, CABAC : Yes
Format settings, Reference fra : 2 frames
Format settings, GOP : M=1, N=10
Codec ID : V_MPEG4/ISO/AVC
Duration : 1 h 57 min
Bit rate mode : Variable
Bit rate : 24.9 Mb/s
Width : 1 920 pixels
Height : 1 080 pixels
Display aspect ratio : 16:9
Frame rate mode : Constant
Frame rate : 23.976 (24000/1001) FPS
Color space : YUV
Chroma subsampling : 4:2:0
Bit depth : 8 bits
Scan type : Progressive
Bits/(Pixel*Frame) : 0.500
Stream size : 20.4 GiB (86%)
Title : The Boondock Saints II: All Saints Day (2009) Remux 1080p Eng | Sub Ukr/Eng [Hurtom]
Language : Ukrainian
Default : Yes
Forced : Yes

Audio #1
ID : 2
Format : XLL
Format/Info : Digital Theater Systems
Commercial name : -HD Master Audio
Codec ID : A_DTS
Duration : 1 h 57 min
Bit rate mode : Variable
Bit rate : 2 821 kb/s
Channel(s) : 6 channels
Channel layout : C L R Ls Rs LFE
Sampling rate : 48.0 kHz
Frame rate : 93.750 FPS (512 SPF)
Bit depth : 24 bits
Compression mode : Lossless
Stream size : 2.32 GiB (10%)
Title : Original -HD MA 5.1
Language : English
Default : Yes
Forced : No

Audio #2
ID : 3
Format : AC-3
Format/Info : Audio Coding 3
Commercial name : Dolby Digital
Codec ID : A_AC3
Duration : 1 h 57 min
Bit rate mode : Constant
Bit rate : 640 kb/s
Channel(s) : 6 channels
Channel layout : L R C LFE Ls Rs
Sampling rate : 48.0 kHz
Frame rate : 31.250 FPS (1536 SPF)
Compression mode : Lossy
Stream size : 538 MiB (2%)
Title : Original 5.1
Language : English
Service kind : Complete Main
Default : No
Forced : No

Audio #3
ID : 4
Format : AC-3
Format/Info : Audio Coding 3
Commercial name : Dolby Digital
Codec ID : A_AC3
Duration : 1 h 57 min
Bit rate mode : Constant
Bit rate : 192 kb/s
Channel(s) : 2 channels
Channel layout : L R
Sampling rate : 48.0 kHz
Frame rate : 31.250 FPS (1536 SPF)
Compression mode : Lossy
Stream size : 161 MiB (1%)
Title : Commentary with Writer/Director Troy Duffy and actors Sean Patrick Flanery, Norman Reedus and Billy Connolly
Language : English
Service kind : Complete Main
Default : No
Forced : No

Audio #4
ID : 5
Format : AC-3
Format/Info : Audio Coding 3
Commercial name : Dolby Digital
Codec ID : A_AC3
Duration : 1 h 57 min
Bit rate mode : Constant
Bit rate : 192 kb/s
Channel(s) : 2 channels
Channel layout : L R
Sampling rate : 48.0 kHz
Frame rate : 31.250 FPS (1536 SPF)
Compression mode : Lossy
Stream size : 161 MiB (1%)
Title : Commentary with Writer/Director Troy Duffy and actor Willem Dafoe
Language : English
Service kind : Complete Main
Default : No
Forced : No

Text #1
ID : 6
Format : PGS
Muxing mode : zlib
Codec ID : S_HDMV/PGS
Codec ID/Info : Picture based subtitle format used on BDs/HD-DVDs
Duration : 1 h 51 min
Bit rate : 38.3 kb/s
Count of elements : 2488
Stream size : 30.6 MiB (0%)
Title : Ukr (Full) PGS
Language : Ukrainian
Default : Yes
Forced : Yes

Text #2
ID : 7
Format : UTF-8
Codec ID : S_TEXT/UTF8
Codec ID/Info : UTF-8 Plain Text
Duration : 1 h 57 min
Bit rate : 61 b/s
Count of elements : 1543
Stream size : 52.6 KiB (0%)
Title : Eng (Full) SRT
Language : English
Default : No
Forced : No

Text #3
ID : 8
Format : PGS
Muxing mode : zlib
Codec ID : S_HDMV/PGS
Codec ID/Info : Picture based subtitle format used on BDs/HD-DVDs
Duration : 1 h 51 min
Bit rate : 39.2 kb/s
Count of elements : 2468
Stream size : 31.4 MiB (0%)
Title : Eng (Full) PGS #1
Language : English
Default : No
Forced : No

Text #4
ID : 9
Format : PGS
Muxing mode : zlib
Codec ID : S_HDMV/PGS
Codec ID/Info : Picture based subtitle format used on BDs/HD-DVDs
Duration : 1 h 51 min
Bit rate : 39.2 kb/s
Count of elements : 2468
Stream size : 31.4 MiB (0%)
Title : Eng (Full) PGS #2
Language : English
Default : No
Forced : No

Text #5
ID : 10
Format : PGS
Muxing mode : zlib
Codec ID : S_HDMV/PGS
Codec ID/Info : Picture based subtitle format used on BDs/HD-DVDs
Duration : 1 h 52 min
Bit rate : 78.3 kb/s
Count of elements : 4137
Stream size : 63.1 MiB (0%)
Title : Eng (Full) | Commentary with Writer/Director Troy Duffy and actors Sean Patrick Flanery, Norman Reedus and Billy Connolly
Language : English
Default : No
Forced : No

Text #6
ID : 11
Format : PGS
Muxing mode : zlib
Codec ID : S_HDMV/PGS
Codec ID/Info : Picture based subtitle format used on BDs/HD-DVDs
Duration : 1 h 53 min
Bit rate : 74.0 kb/s
Count of elements : 3625
Stream size : 59.9 MiB (0%)
Title : Eng (Full) | Commentary with Writer/Director Troy Duffy and actor Willem Dafoe
Language : English
Default : No
Forced : No

Menu
00:00:00.000 : en:Розділ 01
00:06:14.374 : en:Розділ 02
00:16:23.315 : en:Розділ 03
00:22:15.959 : en:Розділ 04
00:30:19.234 : en:Розділ 05
00:36:27.143 : en:Розділ 06
00:45:17.214 : en:Розділ 07
00:48:10.846 : en:Розділ 08
00:55:34.706 : en:Розділ 09
01:04:47.049 : en:Розділ 10
01:11:13.936 : en:Розділ 11
01:18:22.656 : en:Розділ 12
01:23:09.150 : en:Розділ 13
01:29:31.157 : en:Розділ 14
01:35:46.157 : en:Розділ 15
01:43:06.388 : en:Розділ 16
Скріншоти
Джерело: &
Особиста оцінка: 10 - без зайвих вагань рекомендую всім!


Золотий реліз (завантажене не впливає на рейтинг)
 Трекер:    Зареєстрований   

Завантажити / скачати фільм українською



відео для новачків



 Зареєстрований:   2020-04-03 00:51
 Розмір:   23.64 GB 
 Оцінка фільму:   10/10 (Голосів: 6)
   
+380954897458 
VIP


З нами з: 02.06.17
Востаннє: 05.12.20
Повідомлень: 995

2020-04-03 02:00  
"Я така розумна, що розумні люди поряд зі мною здаються відсталими!"
"Дін-дон, мазафака, дін-дон!"
Ну як тут не завантажити таке диво? Хоча я не знаю як довго воно буде качатися, мабуть довго.
Таке враження що красунчик Шон Патрік Фленері десять років, які минули з часів першого фільму, безпробудно пиячив - лице опухло і стало важковпізнаваним. Інші ж виглядають все так же класно. Плюс чарівна Джулі Бенц, комічний помічник героїв Кліфтон Коллінз-молодший, бандит Джад Нельсон, та італійський мафіозник Пітер Фонда!

MakRA 
VIP


З нами з: 10.11.18
Востаннє: 05.12.20
Повідомлень: 1164

2020-04-03 07:28  
Вперше подивився цей фільм рівно 10 років тому назад, в поганенькій якості і таким же перекладом. Тоді картина не сподобалася... Вчора, після перегляду в оригіналі з субтитрами моє враження кардинально змінилося в кращу сторону. Так, це не перша частина, відчуття новизни втрачене, але гра акторів радує, як і акторський склад. Подивитися варто, тверді 8/10 балів.
+380954897458 
VIP


З нами з: 02.06.17
Востаннє: 05.12.20
Повідомлень: 995

2020-04-03 15:41  
Так, перший фільм кращий, тут і сумніву нема. Але і цей також цікаво передивитися. Інколи викидайли з бару можуть створювати культові стрічки. Так само як і продавці з магазинів. Happy
Ваш часовий пояс: GMT + 2 Години

Нова тема   Відповісти