Шлюбна історія / Marriage Story (2019) 720p Ukr/Eng | Sub Ukr/Eng

Нові коментарі

Нова тема   Відповісти
Автор Повідомлення
Anonymous 







2020-04-02 16:50  
Шлюбна історія / Marriage Story (2019) 720p Ukr/Eng | Sub Ukr/Eng




Альтернативні постери



Жанр: комедія, драма, романтичний
Країна: Велика Британія, США

Top250#236 - 95%
    Володар премії «Оскар 2020» - (найкраща жіноча роль другого плану - Лора Дерн)
Кінокомпанія: Heyday Films, Netflix
Режисер: Ноа Баумбах
Актори: Адам Драйвер, Скарлетт Йоганссон, Лора Дерн, Джулія Ґрір, Ажи Робертсон, Алан Алда, Рей Ліотта, Воллес Шон, Меттью Мехер, Ерік Берріман, Мікі Самнер та інші

Сюжет:
Подружжя — нью-йоркський театральний режисер Чарлі і актриса його театру Ніколь — знаходяться в процесі розлучення. Чарлі все влаштовувало в їхньому шлюбі, але Ніколь вважає, що втратила себе, і, забравши сина, переїжджає до мами в Лос-Анджелес. Там їй вже запропонували роль в серіалі і порадили висококласного адвоката по розлученнях. Тепер Чарлі теж доведеться шукати адвоката, а також розриватися між західним і східним узбережжями, щоб продовжувати працювати і проводити час з сином.


Перекладено та озвучено студією DniproFilm

Тривалість: 02:16:58
Якість: 720p

Відео:
кодек:
розмір кадру: 1200 х 720
бітрейт: 3850 кб/с

Аудіо # 1:
мова: українська
переклад: багатоголосий закадровий | студія DniproFilm
кодек: 5.1
бітрейт: 640 кб/с

Аудіо # 2:
мова: англійська
переклад: оригінал
кодек: 5.1
бітрейт: 448 кб/с

Субтитри (Full):
мова: українська
тип: програмні (м'які)
формат: *.srt

Субтитри (Full):
мова: англійська
тип: програмні (м'які)
формат: *.srt
Подяка користувачам, що фінансово допомогли озвученню:
Korleone, Timm, Sehrg-Gut, ishchuruk, UAbomber, NeetScrool, Stefurak_kolya, fl_fl, MutuLI, ivan vyrvyvuho, mrgalser, NemoInFire, hookah973, uaxpasha, ALFROMEDA
Info
Код:
General
Complete name                            : Marriage Story (2019) 720p [UKR_ENG] [Hurtom].
Format                                   :
Format version                           : Version 4
File size                                : 4.73 GiB
Duration                                 : 2 h 16 min
Overall bit rate                         : 4 940 kb/s
Movie name                               : Шлюбна історія / Marriage Story (2019)
Encoded date                             : UTC 2020-04-02 14:24:41
Writing application                      : v30.1.0 ('Forever And More') 64-bit
Writing library                          : libebml v1.3.6 + v1.4.9
Cover                                    : Yes
Attachments                              : cover.jpg

Video
ID                                       : 1
Format                                   : AVC
Format/Info                              : Advanced Video Codec
Format profile                           : [email protected]
Format settings                          : CABAC / 9 Ref Frames
Format settings, CABAC                   : Yes
Format settings, RefFrames               : 9 frames
Codec ID                                 : V_MPEG4/ISO/AVC
Duration                                 : 2 h 16 min
Bit rate                                 : 3 850 kb/s
Width                                    : 1 200 pixels
Height                                   : 720 pixels
Display aspect ratio                     : 5:3
Frame rate mode                          : Constant
Frame rate                               : 24.000 FPS
Color space                              : YUV
Chroma subsampling                       : 4:2:0
Bit depth                                : 8 bits
Scan type                                : Progressive
Bits/(Pixel*Frame)                       : 0.186
Stream size                              : 3.68 GiB (78%)
Title                                    : Брачная история_Marriage Story (2019) ..720p.LQ.NNMClub
Writing library                          : core 158 r2984 3759fcb
Encoding settings                        : cabac=1 / ref=9 / deblock=1:-3:-3 / analyse=0x3:0x133 / me=umh / subme=10 / psy=1 / psy_rd=1.00:0.25 / mixed_ref=1 / me_range=24 / chroma_me=1 / trellis=2 / 8x8dct=1 / cqm=0 / deadzone=6,6 / fast_pskip=0 / chroma_qp_offset=-4 / threads=12 / lookahead_threads=2 / sliced_threads=0 / nr=0 / decimate=0 / interlaced=0 / bluray_compat=0 / constrained_intra=0 / bframes=9 / b_pyramid=2 / b_adapt=2 / b_bias=0 / direct=1 / weightb=1 / open_gop=0 / weightp=2 / keyint=240 / keyint_min=23 / scenecut=40 / intra_refresh=0 / rc_lookahead=40 / rc=2pass / mbtree=1 / bitrate=3850 / ratetol=1.0 / qcomp=0.60 / qpmin=0 / qpmax=69 / qpstep=4 / cplxblur=20.0 / qblur=0.5 / vbv_maxrate=50000 / vbv_bufsize=62500 / nal_hrd=none / filler=0 / ip_ratio=1.10 / aq=3:0.80
Language                                 : English
Default                                  : Yes
Forced                                   : No
Color range                              : Limited
Color primaries                          : BT.709
Transfer characteristics                 : BT.709
Matrix coefficients                      : BT.709

Audio #1
ID                                       : 2
Format                                   : AC-3
Format/Info                              : Audio Coding 3
Commercial name                          : Dolby Digital
Codec ID                                 : A_AC3
Duration                                 : 2 h 16 min
Bit rate mode                            : Constant
Bit rate                                 : 640 kb/s
Channel(s)                               : 6 channels
Channel layout                           : L R C LFE Ls Rs
Sampling rate                            : 48.0 kHz
Frame rate                               : 31.250 FPS (1536 SPF)
Bit depth                                : 16 bits
Compression mode                         : Lossy
Stream size                              : 627 MiB (13%)
Title                                    : 5.1 | 640
Language                                 : Ukrainian
Service kind                             : Complete Main
Default                                  : Yes
Forced                                   : No

Audio #2
ID                                       : 3
Format                                   : AC-3
Format/Info                              : Audio Coding 3
Commercial name                          : Dolby Digital
Codec ID                                 : A_AC3
Duration                                 : 2 h 16 min
Bit rate mode                            : Constant
Bit rate                                 : 448 kb/s
Channel(s)                               : 6 channels
Channel layout                           : L R C LFE Ls Rs
Sampling rate                            : 48.0 kHz
Frame rate                               : 31.250 FPS (1536 SPF)
Bit depth                                : 16 bits
Compression mode                         : Lossy
Stream size                              : 439 MiB (9%)
Title                                    : 5.1 | 448
Language                                 : English
Service kind                             : Complete Main
Default                                  : No
Forced                                   : No

Text #1
ID                                       : 4
Format                                   : UTF-8
Codec ID                                 : S_TEXT/UTF8
Codec ID/Info                            : UTF-8 Plain Text
Duration                                 : 2 h 11 min
Bit rate                                 : 122 b/s
Count of elements                        : 2453
Stream size                              : 118 KiB (0%)
Title                                    : Full
Language                                 : Ukrainian
Default                                  : Yes
Forced                                   : No

Text #2
ID                                       : 5
Format                                   : UTF-8
Codec ID                                 : S_TEXT/UTF8
Codec ID/Info                            : UTF-8 Plain Text
Duration                                 : 2 h 11 min
Bit rate                                 : 90 b/s
Count of elements                        : 2559
Stream size                              : 86.9 KiB (0%)
Title                                    : Full
Language                                 : English
Default                                  : No
Forced                                   : No
Скріншоти







За постери подяка пану mrgalser
Джерело:
Особиста оцінка: 0 - не дивився


Авторський реліз (завантажувати можна без реєстрації)
 Трекер:    Зареєстрований   

Завантажити / скачати фільм українською



відео для новачків



 Зареєстрований:   2020-04-02 18:37
 Розмір:   4.73 GB 
 Оцінка фільму:   8.7/10 (Голосів: 21)
   
Інші релізи
waldi-hurtom 
VIP


З нами з: 07.10.12
Востаннє: 22.09.20
Повідомлень: 1176

2020-04-07 16:52  
Не зачепило зовсім - не змогли додивитися. Скарлет Йохансон жахливо змарніла. Естетики нуль, жартів нуль. Модна нині але заяложена десятками фільмів рокіровка статей, страшенно занудні обоє партнерів. Сама по собі підміна ролей жінки та чоловіка має зробити комедію? Романтики нуль. Думки нуль. Душі нуль. Немає чого дивитися. Ні уму ні серцю. Перепрошую, що це за комедія, яка зачіпає (можливо) лише наприкінці фільму? Може, молоді щось розгледять у цьому "шедеврі"?
Ваш часовий пояс: GMT + 2 Години

Нова тема   Відповісти