Ману / Manou the Swift (2019) 1080p H.265 Ukr/Eng | Sub Eng

Нові коментарі

Нова тема   Відповісти
Автор Повідомлення
Anonymous 







2020-04-01 12:57  
Ману / Manou the Swift (2019) 1080p H.265 Ukr/Eng | Sub Eng

Ману / Manou the Swift (2019) 1080p H.265 Ukr/Eng | Sub Eng


Жанр: анімація, пригодницький, комедія
Країна: Німеччина
Кінокомпанія: LUXX Film
Режисер: Крістіан Хаас, Андреа Блок
Актори: Фрідріх Мюке, Кассандра Стін, Олівер Калькофе, Ульріке Штурцбехер, Домінік Кун, Джулі Натансон, Сонні Дей, Маріанн Келлі, Симон Брендель, Моріц Брендел

Сюжет:
Стриж Ману зростає в сім'ї чайок і щосили намагається навчитися плавати, ловити рибу і літати так само, як і вони. Але під час традиційного літнього змагання він розуміє, що ніколи не зможе стати чайкою. Розсерджений Ману відлітає з дому, де зустрічає нових друзів. Через це псуються його стосунки з рідною зграєю. Але тут в справу втручається випадок. Ману, який виріс відважним як чайка і винахідливим як стриж, вдається вберегти і чайок, і стрижів від небезпеки, що насувається і стати героєм в очах і тих і інших

Тривалість: 01:28:36
Якість:

Відео:
кодек: H.265 (HEVC)
розмір кадру: 1920 x 1080
бітрейт: 8 417 кб/с
бітова глибина: 10 біт

Увага! Перед завантаженням переконайтесь, що ваш пристрій відтворення (та/або ПЗ) підтримує H.265 (HEVC)

Аудіо # 1:
мова: українська
переклад: професійний дубльований
кодек: AC-3 2.0
бітрейт: 192 кб/с

Аудіо # 2:
мова: англійська
переклад: оригінал
кодек: 5.1
бітрейт: 1510 кб/с

Субтитри # 1: (Full)
мова: англійська
тип: програмні (м'які)
формат: *.srt


Info
Код:
General
Unique ID                                : 181687654886483564428291364059811067457 (0x88AFC4FE6B7491125CEA78131C0AB641)
Complete name                            : Manou the Swift (2019) 1080p H.265 [UKR_ENG] [Hurtom].
Format                                   :
Format version                           : Version 4
File size                                : 6.26 GiB
Duration                                 : 1 h 28 min
Overall bit rate                         : 10.1 Mb/s
Movie name                               : Ману / Manou the Swift (2019)
Encoded date                             : UTC 2020-04-01 10:47:49
Writing application                      : v20.0.0 ('I Am The Sun') 64-bit
Writing library                          : libebml v1.3.5 + v1.4.8
Cover                                    : Yes
Attachments                              : Cover.jpg

Video
ID                                       : 1
Format                                   : HEVC
Format/Info                              : High Efficiency Video Coding
Format profile                           : Main [email protected]@High
Codec ID                                 : V_MPEGH/ISO/HEVC
Duration                                 : 1 h 28 min
Bit rate                                 : 8 417 kb/s
Width                                    : 1 920 pixels
Height                                   : 1 080 pixels
Display aspect ratio                     : 16:9
Frame rate mode                          : Constant
Frame rate                               : 24.000 FPS
Color space                              : YUV
Chroma subsampling                       : 4:2:0
Bit depth                                : 10 bits
Bits/(Pixel*Frame)                       : 0.169
Stream size                              : 5.21 GiB (83%)
Title                                    : Ману / Manou the Swift (2019)
Writing library                          : x265 - H.265/HEVC codec
Default                                  : Yes
Forced                                   : No

Audio #1
ID                                       : 2
Format                                   : AC-3
Format/Info                              : Audio Coding 3
Commercial name                          : Dolby Digital
Codec ID                                 : A_AC3
Duration                                 : 1 h 28 min
Bit rate mode                            : Constant
Bit rate                                 : 192 kb/s
Channel(s)                               : 2 channels
Channel layout                           : L R
Sampling rate                            : 48.0 kHz
Frame rate                               : 31.250 FPS (1536 SPF)
Compression mode                         : Lossy
Stream size                              : 122 MiB (2%)
Title                                    : / 2.0 Ch / 192 kbps / ПД / Novy Kanal
Language                                 : Ukrainian
Service kind                             : Complete Main
Default                                  : Yes
Forced                                   : Yes

Audio #2
ID                                       : 3
Format                                   :
Format/Info                              : Digital Theater Systems
Codec ID                                 : A_DTS
Duration                                 : 1 h 28 min
Bit rate mode                            : Constant
Bit rate                                 : 1 509 kb/s
Channel(s)                               : 6 channels
Channel layout                           : C L R Ls Rs LFE
Sampling rate                            : 48.0 kHz
Frame rate                               : 93.750 FPS (512 SPF)
Bit depth                                : 24 bits
Compression mode                         : Lossy
Stream size                              : 956 MiB (15%)
Title                                    : / 5.1 Ch / 1509 kbps / Original
Language                                 : English
Default                                  : No
Forced                                   : No

Text
ID                                       : 4
Format                                   : UTF-8
Codec ID                                 : S_TEXT/UTF8
Codec ID/Info                            : UTF-8 Plain Text
Duration                                 : 1 h 27 min
Bit rate                                 : 33 b/s
Count of elements                        : 866
Stream size                              : 21.5 KiB (0%)
Title                                    : Full
Language                                 : English
Default                                  : No
Forced                                   : No

Menu
00:00:00.000                             : en:Chapter 01
00:06:57.625                             : en:Chapter 02
00:14:10.375                             : en:Chapter 03
00:22:33.333                             : en:Chapter 04
00:31:38.833                             : en:Chapter 05
00:36:06.792                             : en:Chapter 06
00:43:52.833                             : en:Chapter 07
00:52:12.792                             : en:Chapter 08
00:59:52.917                             : en:Chapter 09
01:07:00.708                             : en:Chapter 10
01:14:10.208                             : en:Chapter 11
01:21:52.208                             : en:Chapter 12
Світлини




Джерело: &
Особиста оцінка: 0 - не дивився


 Трекер:    Зареєстрований   

Завантажити / скачати мультфільм українською



відео для новачків



 Зареєстрований:   2020-04-01 12:57
 Розмір:   6.26 GB 
 Оцінка мультфільму:   9.8/10 (Голосів: 6)
   
Інші релізи
   Ману / Manou the Swift (2019) 1080p 2xUkr/Eng | sub Eng staf777  1 / 1   7.91 GB   2021-02-25 14:23 
   Ману / Manou the Swift (2019) Remux 1080p 2xUkr/Eng | sub Eng staf777  0 / 1   16.15 GB   2021-02-25 14:00 
   Ману / Manou the Swift (2019) 720p 2xUkr/Eng | sub Eng staf777  7 / 2   3.61 GB   2021-02-24 18:26 
   Ману / Manou the Swift (2019) 2xUkr antik_2008  22 / 1   1.47 GB   2021-02-24 12:28 
   Ману / Manou the Swift (2019) AVC 2xUkr/Eng | sub Eng Arsenfpu  7 / 0   1.68 GB   2021-02-23 21:59 
bot 
робот


З нами з: 30.09.07
Востаннє: 26.05.05
Повідомлень: 27319

2020-04-01 12:58  
Тему перенесено з Мультсеріали в HD до форуму Мультфільми в HD


-Star-Lord-

Ваш часовий пояс: GMT + 2 Години

Нова тема   Відповісти