Земля обітована / Ziemia obiecana (1974) (Телевізійна версія) DVBRip

Нові коментарі

Нова тема   Відповісти
Автор Повідомлення
21jumpstreet 
VIP


З нами з: 03.07.12
Востаннє: 05.07.20
Повідомлень: 1091

2020-04-01 12:56  
Земля обітована / Ziemia obiecana (1974) (Телевізійна версія) DVBRip

Земля обітована / Ziemia obiecana (1974) (Телевізійна версія) DVBRip

Жанр: Драма
Країна: Польща



Кінокомпанія: Zespol filmowy X
Режисер: Анджей Вайда
Актори: Даніель Ольбрихський, Войцех Пшоняк, Анджей Северин та інші

Сюжет:
Троє друзів, польський шляхтич Кароль Боровецький, єврейський біржовий маклер Моріц Вельт і німецький комерсант Макс Баум, вирішують розпочати власну справу - збудувати найбільшу в місті ткацьку фабрику...


Тривалість: 3 серії по ~50 хв
Якість: DVBRip
Відео:
кодек: MPEG2
розмір кадру: 720 х 576
бітрейт: ~2700 кб/с
Аудіо:
мова: українська
переклад: двоголосий закадровий Ролі озвучили: Олександр Завальський та Ніна Касторф (записано з каналу UA перший 2014 рік)
кодек: МР3
бітрейт: 128 кб/с
Скріншоти


Info:
C:\Users\Admin\Documents\214 Земля Обітована (Ziemia obiecana (1974)) 2.ts
General #1
ID : 1 (0x1)
Complete name : C:\Users\Admin\Documents\214 Земля Обітована (Ziemia obiecana (1974)) 2.ts
Format : MPEG-TS
File size : 1.12 GiB
Duration : 54 min 23 s
Overall bit rate mode : Variable
Overall bit rate : 2 944 kb/s
Video #305
ID : 305 (0x131)
Menu ID : 1 (0x1)
Format : MPEG Video
Format version : Version 2
Format profile : [email protected]
Format settings, BVOP : Yes
Format settings, Matrix : Custom
Format settings, GOP : M=3, N=24
Format settings, picture structure : Frame
Codec ID : 2
Duration : 54 min 23 s
Bit rate mode : Variable
Bit rate : 2 669 kb/s
Maximum bit rate : 15.0 Mb/s
Width : 720 pixels
Height : 576 pixels
Display aspect ratio : 4:3
Frame rate : 25.000 FPS
Standard : PAL
Color space : YUV
Chroma subsampling : 4:2:0
Bit depth : 8 bits
Scan type : Interlaced
Scan order : Top Field First
Compression mode : Lossy
Bits/(Pixel*Frame) : 0.257
Time code of first frame : 00:00:00:00
Time code source : Group of pictures header
GOP, Open/Closed : Open
GOP, Open/Closed of first frame : Closed
Stream size : 1.01 GiB (91%)
Audio #306
ID : 306 (0x132)
Menu ID : 1 (0x1)
Format : MPEG Audio
Format version : Version 1
Format profile : Layer 2
Codec ID : 3
Duration : 54 min 23 s
Bit rate mode : Constant
Bit rate : 128 kb/s
Channel(s) : 2 channels
Sampling rate : 48.0 kHz
Compression mode : Lossy
Delay relative to video : 20 ms
Stream size : 49.8 MiB (4%)
Language : English
Величезна та щира подяка за матеріал чоловіку, який є знавцем студії 1+1, УТ-1, УТ-2 - Аркадій Дзиґа

Увага! У розшуку 4 серія! Вона утрачена. Якщо в когось є, прохання поділитися!


Срібний реліз (на рейтинг впливає 50% завантаженого)
 Трекер:    Зареєстрований   

Завантажити / скачати фільм українською



відео для новачків



 Зареєстрований:   2020-04-01 18:05
 Розмір:   3.19 GB 
 Оцінка фільму:   10/10 (Голосів: 2)
   
bot 
робот


З нами з: 30.09.07
Востаннє: 26.05.05
Повідомлень: 24971

2020-04-01 12:56  
Тему перенесено з Фільми до форуму Анонси релізів


21jumpstreet

=KateRyna= 
Новенький


З нами з: 26.08.14
Востаннє: 05.07.20
Повідомлень: 24

2020-04-01 13:35  
*Ziemia obiecana
bot 
робот


З нами з: 30.09.07
Востаннє: 26.05.05
Повідомлень: 24971

2020-04-01 18:05  
Тему перенесено з Анонси релізів до форуму Фільми


21jumpstreet

Ваш часовий пояс: GMT + 2 Години

Нова тема   Відповісти