Погані хлопці назавжди / Bad Boys for Life (2020) UHD 4K 2160p HDR H.265 Ukr/Eng | Sub Ukr/Eng

Нові коментарі

Нова тема   Відповісти
Автор Повідомлення
Anonymous 







2020-04-01 09:20  
Погані хлопці назавжди / Bad Boys for Life (2020) UHD 4K 2160p HDR H.265 Ukr/Eng | Sub Ukr/Eng

Погані хлопці назавжди / Bad Boys for Life (2020) UHD 4K 2160p HDR H.265 Ukr/Eng | Sub Ukr/Eng


Жанр: бойовик, комедія, кримінал, трилер
Країна: США, Мексика







Кінокомпанія: Sony Pictures, Columbia Pictures
Режисер: Аділь Ель Арбі, Білал Фалла
Актори: Вілл Сміт, Мартін Лоуренс, Ванесса Енн Хадженс, Александр Людвіг, Чарльз Мелтон, Паола Нуньєс, Кейт Дел Кастілло, Ніккі Джем, Джо Пантольяно

Сюжет:
Напарники по службі в поліції Маямі Майк Лоурі та Маркус Бернетт разом розкрили чимало справ і зловили не одного поганого хлопця. Але Маркус втомився, він уже хоче на пенсію або хоча би змінити місце роботи, вік уже не той. Чоловік вирішив, що буде приватним детективом, ця посада спокійніша, ніж постійна стрілянина. Майку ж дали нову команду молодих і зухвалих поліцейських, яких ще вчити та вчити... Але нудно йому не буде точно, адже його хоче вбити албанський найманець заради помсти за свого брата. Тільки одне могло змусити напарників об'єднатися знову – небезпека життів один одного. Це їх остання справа, заради якої хлопці повинні забути старі образи.


Тривалість: 02:03:56
Якість: 2160p

Відео:
кодек: H.265 (HEVC)
розмір кадру: 3840x2160
бітрейт: 21900 кб/с
бітова глибина: 10 біт

Аудіо # 1:
мова: українська
переклад: професійний дубльований
кодек: 2.0
бітрейт: 192 кб/с

Аудіо # 2:
мова: англійська
переклад: оригінал
кодек: E- 5.1
бітрейт: 640 кб/с

Джерело озвучення:


Субтитри: (Forced, Full)
мова: українська
тип: програмні (м'які)
формат: *.srt

Субтитри: (Forced, Full, SDH)
мова: англійська
тип: програмні (м'які)
формат: *.srt
Info
Код:
General
Complete name                            : Bad Boys for Life (2020) UHD 2160p [Ukr_Eng].
Format                                   :
Format version                           : Version 4
File size                                : 19.7 GiB
Duration                                 : 2 h 3 min
Overall bit rate                         : 22.7 Mb/s
Movie name                               : Погані хлопці назавжди / Bad Boys for Life (2020)
Encoded date                             : UTC 2020-04-01 07:17:41
Writing application                      : v30.1.0 ('Forever And More') 64-bit
Writing library                          : libebml v1.3.6 + v1.4.9
Cover                                    : Yes
Attachments                              : cover.jpg

Video
ID                                       : 1
Format                                   : HEVC
Format/Info                              : High Efficiency Video Coding
Commercial name                          : HDR10
Format profile                           : Main [email protected]@High
Codec ID                                 : V_MPEGH/ISO/HEVC
Duration                                 : 2 h 3 min
Bit rate                                 : 21.9 Mb/s
Width                                    : 3 840 pixels
Height                                   : 2 160 pixels
Display aspect ratio                     : 16:9
Frame rate mode                          : Constant
Frame rate                               : 23.976 (24000/1001) FPS
Color space                              : YUV
Chroma subsampling                       : 4:2:0
Bit depth                                : 10 bits
Bits/(Pixel*Frame)                       : 0.110
Stream size                              : 19.0 GiB (96%)
Language                                 : English
Default                                  : Yes
Forced                                   : No
Color range                              : Limited
Color primaries                          : BT.2020
Transfer characteristics                 : PQ
Matrix coefficients                      : BT.2020 non-constant
Mastering display color primaries        : Display P3
Mastering display luminance              : min: 0.0050 cd/m2, max: 4000 cd/m2
Maximum Content Light Level              : 4004 cd/m2
Maximum Frame-Average Light Level        : 695 cd/m2

Audio #1
ID                                       : 2
Format                                   : AC-3
Format/Info                              : Audio Coding 3
Commercial name                          : Dolby Digital
Codec ID                                 : A_AC3
Duration                                 : 2 h 3 min
Bit rate mode                            : Constant
Bit rate                                 : 192 kb/s
Channel(s)                               : 2 channels
Channel layout                           : L R
Sampling rate                            : 48.0 kHz
Frame rate                               : 31.250 FPS (1536 SPF)
Bit depth                                : 16 bits
Compression mode                         : Lossy
Stream size                              : 170 MiB (1%)
Title                                    : 2.0 | 192
Language                                 : Ukrainian
Service kind                             : Complete Main
Default                                  : Yes
Forced                                   : No

Audio #2
ID                                       : 3
Format                                   : E-AC-3
Format/Info                              : Enhanced AC-3
Commercial name                          : Dolby Digital Plus
Codec ID                                 : A_EAC3
Duration                                 : 2 h 3 min
Bit rate mode                            : Constant
Bit rate                                 : 640 kb/s
Channel(s)                               : 6 channels
Channel layout                           : L R C LFE Ls Rs
Sampling rate                            : 48.0 kHz
Frame rate                               : 31.250 FPS (1536 SPF)
Compression mode                         : Lossy
Stream size                              : 567 MiB (3%)
Title                                    : E- 5.1 | 640
Language                                 : English
Service kind                             : Complete Main
Default                                  : No
Forced                                   : No

Text #1
ID                                       : 4
Format                                   : UTF-8
Codec ID                                 : S_TEXT/UTF8
Codec ID/Info                            : UTF-8 Plain Text
Duration                                 : 1 h 58 min
Bit rate                                 : 4 b/s
Count of elements                        : 79
Stream size                              : 3.65 KiB (0%)
Title                                    : Forced
Language                                 : Ukrainian
Default                                  : Yes
Forced                                   : No

Text #2
ID                                       : 5
Format                                   : UTF-8
Codec ID                                 : S_TEXT/UTF8
Codec ID/Info                            : UTF-8 Plain Text
Duration                                 : 2 h 2 min
Bit rate                                 : 102 b/s
Count of elements                        : 1618
Stream size                              : 92.0 KiB (0%)
Title                                    : Full
Language                                 : Ukrainian
Default                                  : No
Forced                                   : No

Text #3
ID                                       : 6
Format                                   : UTF-8
Codec ID                                 : S_TEXT/UTF8
Codec ID/Info                            : UTF-8 Plain Text
Duration                                 : 1 h 45 min
Bit rate                                 : 2 b/s
Count of elements                        : 77
Stream size                              : 2.22 KiB (0%)
Title                                    : Forced
Language                                 : English
Default                                  : No
Forced                                   : No

Text #4
ID                                       : 7
Format                                   : UTF-8
Codec ID                                 : S_TEXT/UTF8
Codec ID/Info                            : UTF-8 Plain Text
Duration                                 : 1 h 57 min
Bit rate                                 : 59 b/s
Count of elements                        : 1547
Stream size                              : 50.9 KiB (0%)
Title                                    : Full
Language                                 : English
Default                                  : No
Forced                                   : No

Text #5
ID                                       : 8
Format                                   : UTF-8
Codec ID                                 : S_TEXT/UTF8
Codec ID/Info                            : UTF-8 Plain Text
Duration                                 : 2 h 1 min
Bit rate                                 : 80 b/s
Count of elements                        : 2225
Stream size                              : 71.4 KiB (0%)
Title                                    : SDH
Language                                 : English
Default                                  : No
Forced                                   : No

Menu
00:00:00.000                             : en:1
00:07:33.173                             : en:2
00:14:56.616                             : en:3
00:23:43.225                             : en:4
00:31:05.583                             : en:5
00:38:43.039                             : en:6
00:45:26.317                             : en:7
00:53:27.297                             : en:8
01:00:22.003                             : en:9
01:07:29.220                             : en:10
01:12:55.129                             : en:11
01:22:12.310                             : en:12
01:29:49.057                             : en:13
01:36:47.767                             : en:14
01:42:08.546                             : en:15
01:53:55.878                             : en:16
Скріншоти
Джерело:
Особиста оцінка: 8 - мені сподобалося
Увага! Перед завантаженням переконайтесь, що ваш пристрій відтворення (та/або ПЗ) підтримує H.265 (HEVC)


 Трекер:    Зареєстрований   

Завантажити / скачати фільм українською



відео для новачків



 Зареєстрований:   2020-04-01 09:32
 Розмір:   19.67 GB 
 Оцінка фільму:   9.1/10 (Голосів: 24)
   
Василь Михайлюк 
Свій


З нами з: 01.04.19
Востаннє: 24.02.21
Повідомлень: 64

2020-04-01 14:55  
хороший добротний фільм, сподобався
KeryaS 
VIP


З нами з: 01.09.14
Востаннє: 24.02.21
Повідомлень: 316

2020-04-01 20:21  
Дивитися можна, в дусі перших частин, але на сьогоднішній день виглядає відверто застаріло.
FisherCS 
Новенький


З нами з: 13.01.13
Востаннє: 10.01.21
Повідомлень: 15

2020-04-01 23:03  
Блін, ну чому майже всюди українська в 2.0 ?
don pedro 
Попереджень: 1
Попереджень: 1 


З нами з: 29.06.11
Востаннє: 25.02.21
Повідомлень: 18833

2020-04-01 23:07  
KeryaS написано:
застаріло

Вже навіть перша частина у дев'яностих виглядала цілком вторинно щодо, скажімо, тієї ж "Смертельної зброї".

zhman 
VIP


З нами з: 21.12.14
Востаннє: 23.02.21
Повідомлень: 280

2020-04-02 12:36  
якось я пропустив попередні частини, але цей фільм нічо так, зайшов. Кінцівка ніби натякає на продовження
gezar 
Новенький


З нами з: 02.06.15
Востаннє: 23.02.21
Повідомлень: 3

2020-04-02 19:50  
zhman написано:
якось я пропустив попередні частини, але цей фільм нічо так, зайшов. Кінцівка ніби натякає на продовження

Раджу передивитись . Нічим не гірше , а моментами і краще

zhman 
VIP


З нами з: 21.12.14
Востаннє: 23.02.21
Повідомлень: 280

2020-04-03 15:41  
gezar
що ж, дякую за пропозицію. Матиму натхнення, то глянуHappy

Anonymous 







2020-04-23 22:46  
8 - мені сподобалося
Ваш часовий пояс: GMT + 2 Години

Нова тема   Відповісти