Апостол / The Apostle (1997) 1080p Ukr/Eng | Sub Eng

Нові коментарі

Нова тема   Відповісти
Автор Повідомлення
Anonymous 







2020-04-01 06:16  
Апостол / The Apostle (1997) 1080p Ukr/Eng | Sub Eng

Апостол / The Apostle (1997) 1080p Ukr/Eng | Sub Eng


Жанр: драма
Країна: США



Кінокомпанія: Butcher's Run Films
Режисер: Роберт Дюваль
Актори: Роберт Дювалл, Фарра Фосетт, Біллі Боб Торнтон, Джун Картер Кеш, Міранда Річардсон, Тодд Аллен, Ленор Бенкс, Джон Бізлі, Мері Лінетт Брекстон, Бретт Брок, Крістофер Кенада, Крістіан Кенада, Брава Вільям Атлас Коул, Реверенд Френк Коллінз мл., проспіваний Карл Д. Кук, Наомі Крейг, Вейн Діхарт, Рик Дайал, Жан Фоусет, Джим Глісон, Уолтон Гоггинс

Сюжет:
Немолодий техаський проповідник Юлісс Дьюї, якого всі кличуть просто Сонні, переживає важкий період у житті. Дружина хоче з ним розлучитися, бо у неї роман з Хорейсом, іншим проповідником. Забувши про християнські заповіді, в пориві люті Сонні б'є суперника бейсбольною битою, після чого йде з дому, змінює ім'я на "Апостол" і переїжджає до афроамериканської громади, де починає життя з нуля...


Тривалість: 02:14:19
Якість: 1080p
Відео:
кодек:
розмір кадру: 1920х1080
бітрейт: 11.1 Mб/с

Аудіо # 1:
мова: українська
переклад: багатоголосий закадровий
кодек: 2.0
бітрейт: 192 кб/с

Аудіо # 2:
мова: англійська
переклад: оригінал
кодек: E-AC-3 2.0
бітрейт: 224 кб/с

Субтитри:
мова: англійська
тип: програмні (м'які)
формат: *.srt
Info
General
Unique ID : 216291089664586127433503683948390731699 (0xA2B8260C8B722F9FA58CCB2402694FB3)
Complete name : E:\Toloka\2020\The Apostle (1997) 1080p.
Format :
Format version : Version 4
File size : 11.0 GiB
Duration : 2 h 14 min
Overall bit rate mode : Variable
Overall bit rate : 11.7 Mb/s
Encoded date : UTC 2020-04-01 03:04:28
Writing application : v6.1.0 ('Old Devil') built on Mar 4 2013 09:10:42
Writing library : libebml v1.3.0 + v1.4.0

Video
ID : 1
Format : AVC
Format/Info : Advanced Video Codec
Format profile : [email protected]
Format settings : CABAC / 4 Ref Frames
Format settings, CABAC : Yes
Format settings, RefFrames : 4 frames
Codec ID : V_MPEG4/ISO/AVC
Duration : 2 h 14 min
Bit rate mode : Variable
Bit rate : 11.1 Mb/s
Maximum bit rate : 15.0 Mb/s
Width : 1 920 pixels
Height : 1 080 pixels
Display aspect ratio : 16:9
Frame rate mode : Constant
Frame rate : 23.976 (24000/1001) FPS
Color space : YUV
Chroma subsampling : 4:2:0
Bit depth : 8 bits
Scan type : Progressive
Bits/(Pixel*Frame) : 0.223
Stream size : 10.4 GiB (94%)
Writing library : core 148 r2623 d5b2374
Encoding settings : cabac=1 / ref=4 / deblock=1:-1:-1 / analyse=0x3:0x133 / me=umh / subme=9 / psy=1 / psy_rd=1.00:0.15 / mixed_ref=1 / me_range=24 / chroma_me=1 / trellis=2 / 8x8dct=1 / cqm=0 / deadzone=21,11 / fast_pskip=1 / chroma_qp_offset=-3 / threads=34 / lookahead_threads=5 / sliced_threads=0 / nr=150 / decimate=1 / interlaced=0 / bluray_compat=0 / constrained_intra=0 / bframes=8 / b_pyramid=2 / b_adapt=2 / b_bias=0 / direct=3 / weightb=1 / open_gop=0 / weightp=2 / keyint=120 / keyint_min=61 / scenecut=0 / intra_refresh=0 / rc_lookahead=120 / rc=crf / mbtree=1 / crf=18.0 / qcomp=0.60 / qpmin=0 / qpmax=69 / qpstep=4 / vbv_maxrate=15000 / vbv_bufsize=31250 / crf_max=0.0 / nal_hrd=vbr / filler=0 / ip_ratio=1.40 / aq=3:1.00
Default : Yes
Forced : No
Color range : Limited
Color primaries : BT.709
Transfer characteristics : BT.709
Matrix coefficients : BT.709
Statistics Tags Issue : v17.0.0 ('Be Ur Friend') 64-bit 2017-10-26 08:48:28 / v6.1.0 ('Old Devil') built on Mar 4 2013 09:10:42 2020-04-01 03:04:28
FromStats_BitRate : 11324165
FromStats_Duration : 02:14:19.385000000
FromStats_FrameCount : 193232
FromStats_StreamSize : 11408226039

Audio #1
ID : 2
Format : AC-3
Format/Info : Audio Coding 3
Commercial name : Dolby Digital
Codec ID : A_AC3
Duration : 2 h 14 min
Bit rate mode : Constant
Bit rate : 192 kb/s
Channel(s) : 2 channels
Channel layout : L R
Sampling rate : 48.0 kHz
Frame rate : 31.250 FPS (1536 SPF)
Bit depth : 16 bits
Compression mode : Lossy
Stream size : 184 MiB (2%)
Title : UKR (Cine+)
Language : Ukrainian
Service kind : Complete Main
Default : Yes
Forced : Yes

Audio #2
ID : 3
Format : E-AC-3
Format/Info : Enhanced AC-3
Commercial name : Dolby Digital Plus
Codec ID : A_EAC3
Duration : 2 h 14 min
Bit rate mode : Constant
Bit rate : 224 kb/s
Channel(s) : 2 channels
Channel layout : L R
Sampling rate : 48.0 kHz
Frame rate : 31.250 FPS (1536 SPF)
Compression mode : Lossy
Stream size : 215 MiB (2%)
Title : ENG
Language : English
Service kind : Complete Main
Default : No
Forced : No
Statistics Tags Issue : v17.0.0 ('Be Ur Friend') 64-bit 2017-10-26 08:48:28 / v6.1.0 ('Old Devil') built on Mar 4 2013 09:10:42 2020-04-01 03:04:28
FromStats_BitRate : 224000
FromStats_Duration : 02:14:19.360000000
FromStats_FrameCount : 251855
FromStats_StreamSize : 225662080

Text
ID : 4
Format : UTF-8
Codec ID : S_TEXT/UTF8
Codec ID/Info : UTF-8 Plain Text
Title : ENG
Language : English
Default : No
Forced : No
Statistics Tags Issue : v17.0.0 ('Be Ur Friend') 64-bit 2017-10-26 08:48:28 / v6.1.0 ('Old Devil') built on Mar 4 2013 09:10:42 2020-04-01 03:04:28
FromStats_BitRate : 92
FromStats_Duration : 02:13:21.728000000
FromStats_FrameCount : 2446
FromStats_StreamSize : 92299
Скріншоти








За доріжку подяка п.: Sando7, krigg070
Особиста подяка пану denixx за надану матеріальну допомогу на підтримку цього і майбутніх релізів.
Джерело:


Срібний реліз (на рейтинг впливає 50% завантаженого)
 Трекер:    Зареєстрований   

Завантажити / скачати фільм українською



відео для новачків



 Зареєстрований:   2020-04-01 06:16
 Розмір:   11.02 GB 
 Оцінка фільму:   9.3/10 (Голосів: 4)
   
Інші релізи
   Апостол / The Apostle (1997) -AVC Ukr/Eng krigg070  2 / 0   2.09 GB   2017-12-03 16:27 
+380954897458 
VIP


З нами з: 02.06.17
Востаннє: 18.09.20
Повідомлень: 942

2020-04-01 20:54  
Роберт Дювал в головній ролі, але його нема в списку акторів, а має бути. Номінувався на Оскар за цю роль. Дякую за фільм, цікаво буде подивитися!
Ваш часовий пояс: GMT + 2 Години

Нова тема   Відповісти