Історія іграшок: Життя лампи / Toy Story: Lamp Life (2020) UHD 2160p H.265 Ukr/Eng | Sub Ukr/Eng

Нові коментарі

Нова тема   Відповісти
Автор Повідомлення
Anonymous 







2020-03-30 22:14  
Історія іграшок: Життя лампи / Toy Story: Lamp Life (2020) UHD 2160p H.265 Ukr/Eng | Sub Ukr/Eng

Історія іграшок: Життя лампи / Toy Story: Lamp Life (2020) UHD 2160p H.265 Ukr/Eng | Sub Ukr/Eng


Жанр: мультфільм, короткометражний, фентезі, сімейний
Країна: США
Кінокомпанія: Pixar Animation Studios, Walt Disney Pictures
Режисер: Валері Лапойнт
Ролі озвучують: Крістіна Хендрікс, Енні Поттс, Джим Хенкс, Емілі Девіс, Керрі Пафф

Сюжет:
Історія присвячена пригодам порцелянової ляльки Бо Піп.!

Тривалість: 00:07:11
Якість: UHD

Відео:
кодек: H.265 (HEVC)
розмір кадру: 3840 x 2160
бітрейт: 16 431 кб/с
бітова глибина: 10 біт
кольоровий простір: BT.2020 (HDR)
Як відтворити HDR контент на звичайному пк, на якому немає його підтримки
1. Для відтворення скачайте K-Lite Codec Pack
2. Виберіть Madvr тут:
MPC-HC options > Playback > Output > Video Renderer

3. Перезавантажте MPC-HC

Увага! Перед завантаженням переконайтесь, що ваш пристрій відтворення (та/або ПЗ) підтримує H.265 (HEVC)

Аудіо # 1:
мова: українська
переклад: багатоголосий закадровий | Chewey та Lem0nka
кодек: AC-3 2.0
бітрейт: 192 кб/с
Інформація про озвучення
Подяка за роботу:
Переклад і субтитри: Вояка Schweik
Ролі озвучували: Chewey та Lem0nka
Робота зі звуком: Chewey

Спільна робота: Quam project та Dzuski.com та вільних стрільців
Аудіо # 2:
мова: англійська
переклад: оригінал
кодек: E-AC-3 5.1
бітрейт: 768 кб/с

Субтитри # 1-2: (Forced by Вояка Schweik, Full by Вояка Schweik)
мова: українська
тип: програмні (м'які)
формат: *.srt

Субтитри # 3-4: (Full, SDH)
мова: англійська
тип: програмні (м'які)
формат: *.srt


Info
Код:
General
Unique ID                                : 197173913304649738095261402183409643803 (0x9456507BC481BE5E1B29AD3E6E00B11B)
Complete name                            : Lamp Life (2020) UHD 2160p HDR [UKR_ENG] [Hurtom].
Format                                   :
Format version                           : Version 4
File size                                : 895 MiB
Duration                                 : 7 min 11 s
Overall bit rate                         : 17.4 Mb/s
Movie name                               : Життя лампи / Lamp Life (2020)
Encoded date                             : UTC 2020-03-30 20:10:53
Writing application                      : v20.0.0 ('I Am The Sun') 64-bit
Writing library                          : libebml v1.3.5 + v1.4.8
Cover                                    : Yes
Attachments                              : Cover.jpg

Video
ID                                       : 1
Format                                   : HEVC
Format/Info                              : High Efficiency Video Coding
Format profile                           : Main [email protected]@High
HDR format                               : SMPTE ST 2086, HDR10 compatible
Codec ID                                 : V_MPEGH/ISO/HEVC
Duration                                 : 7 min 11 s
Bit rate                                 : 16.4 Mb/s
Width                                    : 3 840 pixels
Height                                   : 2 160 pixels
Display aspect ratio                     : 16:9
Frame rate mode                          : Constant
Frame rate                               : 23.976 (24000/1001) FPS
Color space                              : YUV
Chroma subsampling                       : 4:2:0
Bit depth                                : 10 bits
Bits/(Pixel*Frame)                       : 0.083
Stream size                              : 845 MiB (94%)
Title                                    : Життя лампи / Lamp Life (2020)
Default                                  : Yes
Forced                                   : No
Color range                              : Limited
Color primaries                          : BT.2020
Transfer characteristics                 : PQ
Matrix coefficients                      : BT.2020 non-constant
Mastering display color primaries        : BT.2020
Mastering display luminance              : min: 0.0000 cd/m2, max: 1000 cd/m2

Audio #1
ID                                       : 2
Format                                   : AC-3
Format/Info                              : Audio Coding 3
Commercial name                          : Dolby Digital
Codec ID                                 : A_AC3
Duration                                 : 7 min 11 s
Bit rate mode                            : Constant
Bit rate                                 : 192 kb/s
Channel(s)                               : 2 channels
Channel layout                           : L R
Sampling rate                            : 48.0 kHz
Frame rate                               : 31.250 FPS (1536 SPF)
Compression mode                         : Lossy
Stream size                              : 9.88 MiB (1%)
Title                                    : / 2.0 Ch / 192 kbps / БЗ / Chewey, Lem0nka
Language                                 : Ukrainian
Service kind                             : Complete Main
Default                                  : Yes
Forced                                   : Yes

Audio #2
ID                                       : 3
Format                                   : E-AC-3 JOC
Format/Info                              : Enhanced AC-3 with Joint Object Coding
Commercial name                          : Dolby Digital Plus with Dolby Atmos
Codec ID                                 : A_EAC3
Duration                                 : 7 min 11 s
Bit rate mode                            : Constant
Bit rate                                 : 768 kb/s
Channel(s)                               : 6 channels
Channel layout                           : L R C LFE Ls Rs
Sampling rate                            : 48.0 kHz
Frame rate                               : 31.250 FPS (1536 SPF)
Compression mode                         : Lossy
Delay relative to video                  : 5 ms
Stream size                              : 39.5 MiB (4%)
Title                                    : E- / 5.1 Ch / 768 kbps / Original
Language                                 : English
Service kind                             : Complete Main
Default                                  : No
Forced                                   : No
Complexity index                         : 16
Number of dynamic objects                : 15
Bed channel count                        : 1 channel
Bed channel configuration                : LFE

Text #1
ID                                       : 4
Format                                   : UTF-8
Codec ID                                 : S_TEXT/UTF8
Codec ID/Info                            : UTF-8 Plain Text
Duration                                 : 2 min 57 s
Bit rate                                 : 4 b/s
Count of elements                        : 3
Stream size                              : 103 Bytes (0%)
Title                                    : Forced by Вояка Schweik
Language                                 : Ukrainian
Default                                  : Yes
Forced                                   : Yes

Text #2
ID                                       : 5
Format                                   : UTF-8
Codec ID                                 : S_TEXT/UTF8
Codec ID/Info                            : UTF-8 Plain Text
Duration                                 : 6 min 25 s
Bit rate                                 : 106 b/s
Count of elements                        : 111
Stream size                              : 5.00 KiB (0%)
Title                                    : Full by Вояка Schweik
Language                                 : Ukrainian
Default                                  : No
Forced                                   : No

Text #3
ID                                       : 6
Format                                   : UTF-8
Codec ID                                 : S_TEXT/UTF8
Codec ID/Info                            : UTF-8 Plain Text
Duration                                 : 6 min 35 s
Bit rate                                 : 94 b/s
Count of elements                        : 147
Stream size                              : 4.58 KiB (0%)
Title                                    : Full
Language                                 : English
Default                                  : No
Forced                                   : No

Text #4
ID                                       : 7
Format                                   : UTF-8
Codec ID                                 : S_TEXT/UTF8
Codec ID/Info                            : UTF-8 Plain Text
Duration                                 : 6 min 35 s
Bit rate                                 : 94 b/s
Count of elements                        : 147
Stream size                              : 4.58 KiB (0%)
Title                                    : SDH
Language                                 : English
Default                                  : No
Forced                                   : No
Світлини




Джерело: &
Особиста оцінка: 0 - не дивився


Авторський реліз (завантажувати можна без реєстрації)
 Трекер:    Зареєстрований   

Завантажити / скачати фільм українською



відео для новачків



 Зареєстрований:   2020-03-30 22:14
 Розмір:   895 MB 
 Оцінка фільму:   9.7/10 (Голосів: 6)
   
Атлет 
Забанено
Забанено


З нами з: 26.07.18
Востаннє: 29.12.20
Повідомлень: 178

2020-04-03 13:06  
Цитата:
Як відтворити HDR контент на звичайному пк, на якому немає його підтримки

Другий спосіб відтворення цього НПНП-файлу. якщо вам не цікаво дивитися на синці під очима героїв.
Програмою Any Video Converter Ultimate встановіть менший розмір наприклад 720-400 пікс.
Програмою Фабрика Форматів видобудьте звук в формат .мр3.
Об'єднайте ці два файли в чудодово-змонтоване відео для перегляду дітям та дорослим.

Ваш часовий пояс: GMT + 2 Години

Нова тема   Відповісти