Погані хлопці назавжди / Bad Boys for Life (2020) 1080p Ukr/Eng | Sub Ukr/Eng

Нові коментарі

Нова тема   Відповісти
Автор Повідомлення
Anonymous 







2020-03-30 23:11  
Погані хлопці назавжди / Bad Boys for Life (2020) 1080p Ukr/Eng | Sub Ukr/Eng

Погані хлопці назавжди / Bad Boys for Life (2020) 1080p Ukr/Eng | Sub Ukr/Eng


Жанр: бойовик, комедія, кримінальний, трилер
Країна: США, Мексика







Кінокомпанія: Sony Pictures, Columbia Pictures
Режисер: Аділь Ель Арбі, Білал Фалла
Актори: Вілл Сміт, Мартін Лоуренс, Ванесса Енн Хадженс, Александр Людвіг, Чарльз Мелтон, Паола Нуньєс, Кейт Дел Кастілло, Ніккі Джем, Джо Пантольяно

Сюжет:
Напарники по службі в поліції Маямі Майк Лоурі та Маркус Бернетт разом розкрили чимало справ і зловили не одного поганого хлопця. Але Маркус втомився, він уже хоче на пенсію або хоча би змінити місце роботи, вік уже не той. Чоловік вирішив, що буде приватним детективом, ця посада спокійніша, ніж постійна стрілянина. Майку ж дали нову команду молодих і зухвалих поліцейських, яких ще вчити та вчити... Але нудно йому не буде точно, адже його хоче вбити албанський найманець заради помсти за свого брата. Тільки одне могло змусити напарників об'єднатися знову – небезпека життів один одного. Це їх остання справа, заради якої хлопці повинні забути старі образи.


Тривалість: 02:03:58
Якість: 1080p

Відео:
кодек:
розмір кадру: 1920x802
бітрейт: 13,3 Мб/с

Аудіо # 1:
мова: українська
переклад: професійний дубльований
кодек: 5.1
бітрейт: 384 кб/с

Аудіо # 2:
мова: англійська
переклад: оригінал
кодек: 5.1
бітрейт: 640 кб/с

Джерело озвучення:


Субтитри: (Forced, Full)
мова: українська
тип: програмні (м'які)
формат: *.srt

Субтитри: (Full)
мова: англійська
тип: програмні (м'які)
формат: *.srt
Info
Код:
General
Complete name                            : Bad Boys for Life (2020) 1080p [ukr, eng] [Hurtom].
Format                                   :
Format version                           : Version 4
File size                                : 12.4 GiB
Duration                                 : 2 h 3 min
Overall bit rate                         : 14.3 Mb/s
Movie name                               : Погані хлопці назавжди / Bad Boys for Life (2020)
Encoded date                             : UTC 2020-05-05 18:30:13
Writing application                      : v30.1.0 ('Forever And More') 64-bit
Writing library                          : libebml v1.3.6 + v1.4.9
Cover                                    : Yes
Attachments                              : cover.jpg

Video
ID                                       : 1
Format                                   : AVC
Format/Info                              : Advanced Video Codec
Format profile                           : [email protected]
Format settings                          : CABAC / 4 Ref Frames
Format settings, CABAC                   : Yes
Format settings, RefFrames               : 4 frames
Codec ID                                 : V_MPEG4/ISO/AVC
Duration                                 : 2 h 3 min
Bit rate                                 : 13.3 Mb/s
Width                                    : 1 920 pixels
Height                                   : 802 pixels
Display aspect ratio                     : 2.40:1
Frame rate mode                          : Constant
Frame rate                               : 23.976 (24000/1001) FPS
Color space                              : YUV
Chroma subsampling                       : 4:2:0
Bit depth                                : 8 bits
Scan type                                : Progressive
Bits/(Pixel*Frame)                       : 0.360
Stream size                              : 11.5 GiB (93%)
Title                                    : CHD
Writing library                          : core 157 r2867+150 7e91e0e t_mod_Custom_2 [[email protected] X86_64]
Encoding settings                        : cabac=1 / ref=4 / deblock=1:-3:-3 / analyse=0x3:0x133 / me=umh / subme=11 / psy=1 / fade_compensate=0.00 / psy_rd=1.00:0.00 / mixed_ref=1 / me_range=64 / chroma_me=1 / trellis=2 / 8x8dct=1 / cqm=0 / deadzone=21,11 / fast_pskip=0 / chroma_qp_offset=-3 / threads=24 / lookahead_threads=4 / sliced_threads=0 / nr=0 / decimate=1 / interlaced=0 / bluray_compat=0 / constrained_intra=0 / fgo=0 / bframes=8 / b_pyramid=2 / b_adapt=2 / b_bias=0 / direct=3 / weightb=1 / open_gop=0 / weightp=2 / keyint=250 / keyint_min=23 / scenecut=40 / intra_refresh=0 / rc=crf / mbtree=0 / crf=18.0000 / qcomp=0.70 / qpmin=0:0:0 / qpmax=69:69:69 / qpstep=4 / ip_ratio=1.40 / pb_ratio=1.30 / aq=3:1.00 / aq-sensitivity=10.00 / aq-factor=1.00:1.00:1.00 / aq2=0 / aq3=0
Language                                 : English
Default                                  : Yes
Forced                                   : No

Audio #1
ID                                       : 2
Format                                   : AC-3
Format/Info                              : Audio Coding 3
Commercial name                          : Dolby Digital
Codec ID                                 : A_AC3
Duration                                 : 2 h 3 min
Bit rate mode                            : Constant
Bit rate                                 : 384 kb/s
Channel(s)                               : 6 channels
Channel layout                           : L R C LFE Ls Rs
Sampling rate                            : 48.0 kHz
Frame rate                               : 31.250 FPS (1536 SPF)
Bit depth                                : 16 bits
Compression mode                         : Lossy
Stream size                              : 340 MiB (3%)
Title                                    : 5.1 | 384
Language                                 : Ukrainian
Service kind                             : Complete Main
Default                                  : Yes
Forced                                   : No

Audio #2
ID                                       : 3
Format                                   : AC-3
Format/Info                              : Audio Coding 3
Commercial name                          : Dolby Digital
Codec ID                                 : A_AC3
Duration                                 : 2 h 3 min
Bit rate mode                            : Constant
Bit rate                                 : 640 kb/s
Channel(s)                               : 6 channels
Channel layout                           : L R C LFE Ls Rs
Sampling rate                            : 48.0 kHz
Frame rate                               : 31.250 FPS (1536 SPF)
Bit depth                                : 16 bits
Compression mode                         : Lossy
Stream size                              : 568 MiB (4%)
Title                                    : 5.1 | 640
Language                                 : English
Service kind                             : Complete Main
Default                                  : No
Forced                                   : No

Text #1
ID                                       : 4
Format                                   : UTF-8
Codec ID                                 : S_TEXT/UTF8
Codec ID/Info                            : UTF-8 Plain Text
Duration                                 : 1 h 58 min
Bit rate                                 : 4 b/s
Count of elements                        : 79
Stream size                              : 3.65 KiB (0%)
Title                                    : Forced
Language                                 : Ukrainian
Default                                  : Yes
Forced                                   : No

Text #2
ID                                       : 5
Format                                   : UTF-8
Codec ID                                 : S_TEXT/UTF8
Codec ID/Info                            : UTF-8 Plain Text
Duration                                 : 2 h 2 min
Bit rate                                 : 102 b/s
Count of elements                        : 1618
Stream size                              : 92.0 KiB (0%)
Title                                    : Full
Language                                 : Ukrainian
Default                                  : No
Forced                                   : No

Text #3
ID                                       : 6
Format                                   : UTF-8
Codec ID                                 : S_TEXT/UTF8
Codec ID/Info                            : UTF-8 Plain Text
Duration                                 : 2 h 1 min
Bit rate                                 : 67 b/s
Count of elements                        : 2221
Stream size                              : 59.6 KiB (0%)
Language                                 : English
Default                                  : No
Forced                                   : No

Menu
00:00:00.000                             : :Chapter 1
00:07:32.869                             : :Chapter 2
00:14:56.770                             : :Chapter 3
00:23:43.380                             : :Chapter 4
00:31:05.738                             : :Chapter 5
00:38:43.195                             : :Chapter 6
00:45:26.473                             : :Chapter 7
00:53:27.454                             : :Chapter 8
01:00:22.160                             : :Chapter 9
01:07:29.378                             : :Chapter 10
01:12:55.287                             : :Chapter 11
01:22:11.676                             : :Chapter 12
01:29:49.217                             : :Chapter 13
01:36:47.927                             : :Chapter 14
01:42:08.622                             : :Chapter 15
01:53:55.328                             : :Chapter 16
Скріншоти




Джерело: &
Особиста оцінка: 8 - мені сподобалося


 Трекер:    Зареєстрований   

Завантажити / скачати фільм українською



відео для новачків



 Зареєстрований:   2020-05-05 21:54
 Розмір:   12.39 GB 
 Оцінка фільму:   9.1/10 (Голосів: 98)
   
Alexand3r 
Новенький


З нами з: 03.05.19
Востаннє: 22.09.20
Повідомлень: 3

2020-03-30 23:28  
ДякуюHappy
+380954897458 
VIP


З нами з: 02.06.17
Востаннє: 18.09.20
Повідомлень: 942

2020-03-31 12:30  
Не сподобався зовсім. Дуже стандартний фільм вийшов, без родзинки й іскорки. Коли б один з тих режисерів став на плечі іншому, то вони удвох би не дістали й до пупа Майкла Бея. Сценарій теж дуже простецький, схематичний, без будь-якої оригінальності. Хоча крапля гумору порадувала. "Я твій дядечко Маркус!". Алюзія до "Люк, я твій батько!"...
olimpian1 
VIP


З нами з: 19.10.13
Востаннє: 21.09.20
Повідомлень: 290

2020-03-31 14:42  
О-хо-хо! Швиденько вийшов) ввечері заціним

UPDATE: глянув, мені фльм зайшов. Класний бойовик, від якого не слід чекати щось особливого, з гумором.

anhlib 
Новенький


З нами з: 30.11.16
Востаннє: 15.09.20
Повідомлень: 6

2020-03-31 21:59  
Тупий та ще тупіший ((((
RudiUA 
Свій


З нами з: 02.04.13
Востаннє: 03.09.20
Повідомлень: 53

2020-04-01 20:03  
хреновий бойовичок, перша частина була набагато краща і якісніша за сюжетом.
Anonymous 







2020-04-08 21:54  
Торент файл оновлено. Заміна відео на .
MakRA 
VIP


З нами з: 11.11.18
Востаннє: 22.09.20
Повідомлень: 1119

2020-04-08 21:57  
О. Це добре! Happy Дякую!
Влодко G 
Поважний учасник


З нами з: 12.01.08
Востаннє: 11.09.20
Повідомлень: 163

2020-04-09 01:08  
Моє шанування! Хтось читав опис сюжету? Все співпадає, чи, може я щось не зрозумів - "...дали команду... албанський найманець... помста за брата"? Шановний Релізер дякую за можливість переглянути цей гарний фільм але, думаю, треба відредагувати опис.
lunatiq 
Частий відвідувач


З нами з: 01.02.16
Востаннє: 17.09.20
Повідомлень: 36

2020-04-09 17:33  
і хочеться подивитись майже культовий фільм, але боюсь зіпсувати враження ще й про Лоренса..
Custo 12 
Свій


З нами з: 08.11.16
Востаннє: 21.09.20
Повідомлень: 148

2020-04-09 19:23  
Лажа повна!
Wensun 
Поважний учасник


З нами з: 20.01.09
Востаннє: 17.09.20
Повідомлень: 180

2020-04-09 19:47  
передивився всі фільми перед 3 частиною, вийшла достойна, стиль збережений, приколів досить, якщо по рейтингу серйі, то спочатку 2, потім 3, і на кінець 1. на даний момент перша дуже простенька, як то кажуть "ранній Бей".... 8/10. рекомендую.
0mage0 
VIP


З нами з: 06.10.15
Востаннє: 21.09.20
Повідомлень: 696

2020-04-10 21:23  
Дивитися можна, але загалом фільм жалюгідний. Натягнутий сюжет, шмаркливі діалоги, обмаль жартів.
Infoserfer 
Свій


З нами з: 31.10.09
Востаннє: 21.09.20
Повідомлень: 143

2020-04-27 23:35  
Непоганий комедійний бойовик для разового перегляду. В міру жартів, в міру стрілянини, пристойні спецефекти, операторська робота й акторська гра. Загалом - середній фільм, що "зірок з неба не хапає", але може добре розважити.
6/10

Anonymous 







2020-05-05 21:55  
05.05.2020 Роздачу оновлено


Замінив доріжку на АС3 5.1 @ 384 kbps



ryder2 
Частий відвідувач


З нами з: 02.11.17
Востаннє: 03.09.20
Повідомлень: 40

2020-05-28 09:06  
найгірша частина. мабуть більш знято для мексиканських глядачів
FlashBO 
Новенький


З нами з: 16.04.19
Востаннє: 21.09.20
Повідомлень: 1

2020-08-06 13:12  
Позорисько 2/10
Ваш часовий пояс: GMT + 2 Години

Нова тема   Відповісти