Сонячні протилежності (Сезон 1) / Solar Opposites (Season 1) (2020) 1080p Ukr/Eng

Нові коментарі

Нова тема   Відповісти
Автор Повідомлення
simpsonsua 
VIP


З нами з: 13.03.18
Востаннє: 02.06.20
Повідомлень: 331

2020-03-29 23:13  
Сонячні протилежності (Сезон 1) / Solar Opposites (Season 1) (2020) 1080p Ukr/Eng


Сонячні протилежності (Сезон 1) / Solar Opposites (Season 1) (2020) 1080p Ukr/Eng


Від творця «Ріка та Морті»


Якщо вам сподобалося озвучення мультсеріалу,
то ви можете підтримати нас за посиланням
ТИЦЬ


Жанр: анімація, комедія, наукова фантастика
Країна: США



Кінокомпанія / телеканал: 20th Century Fox Television, Disney Television Studios, Fox Television Animation
Режисери/творці: Майк Мак-Махан, Джастін Ройланд
Актори: Шон Джамброн, Мері Мак, Джастін Ройланд

Сюжет:
Ми побачимо історію чотирьох прибульців, які рятуються з власної планети, а місцем їхнього призначення стає Земля. Саме тут їм доведеться прилаштовуватися до незвичного життя, яке викликає у них безліч протиріч.


Український трейлер в нашому озвученні!


Якщо не працює, то ТИЦЬ СЮДИ


Перекладено та озвучено студією сайту simpsonsua.tv


Тривалість: 1 серія: ~ 22 хв. (цілком серій: 8)
Перелік серій:

01. Масив передачі матерії
02. Нестабільна чорна діра
03. Квантове кільце
04. Підсилюючий колектор
05. Реактор з лавою
06. Робот П.А.Т.Р.И.Ц.І.Я.
07. Террі та Корво крадуть ведмедя
08. Прилад Назад-Крокувач
Якість: 1080p
Відео:
кодек:
розмір кадру: 1920 x 1080
бітрейт: ~ 3 000 кб/с

Аудіо # 1:
мова: українська | "simpsonsua.tv"
озвучення: професійне багатоголосе закадрове
кодек: 5.1
бітрейт: 448 кб/с
примітка: Увага, місцями присутня нецензурна лексика!

Аудіо # 2:
мова: англійська
переклад: оригінал
кодек: E- 5.1
бітрейт: 256 кб/с
Info
Код:
Format                      :
Format version              : Version 4
File size                   : 579 MiB
Duration                    : 21 min 54 s
Overall bit rate            : 3 698 kb/s
Movie name                  : Сонячні протилежності / Solar Opposites - S01E01 (2020) 1080p [Ukr.Eng] [simpsonsua.tv]
Encoded date                : UTC 2020-05-08 18:51:12
Writing application         : v6.8.0 ('Theme for Great Cities') 32bit built on Mar  2 2014 21:27:07
Writing library             : libebml v1.3.0 + v1.4.1

Video
ID                          : 1
Format                      : AVC
Format/Info                 : Advanced Video Codec
Format profile              : [email protected]
Format settings             : CABAC / 4 Ref Frames
Format settings, CABAC      : Yes
Format settings, Reference  : 4 frames
Codec ID                    : V_MPEG4/ISO/AVC
Duration                    : 21 min 54 s
Bit rate                    : 2 920 kb/s
Width                       : 1 920 pixels
Height                      : 1 080 pixels
Display aspect ratio        : 16:9
Frame rate mode             : Constant
Frame rate                  : 23.976 (24000/1001) FPS
Color space                 : YUV
Chroma subsampling          : 4:2:0
Bit depth                   : 8 bits
Scan type                   : Progressive
Bits/(Pixel*Frame)          : 0.059
Stream size                 : 458 MiB (79%)
Default                     : Yes
Forced                      : No

Audio #1
ID                          : 2
Format                      : AC-3
Format/Info                 : Audio Coding 3
Commercial name             : Dolby Digital
Codec ID                    : A_AC3
Duration                    : 21 min 54 s
Bit rate mode               : Constant
Bit rate                    : 448 kb/s
Channel(s)                  : 6 channels
Channel layout              : L R C LFE Ls Rs
Sampling rate               : 48.0 kHz
Frame rate                  : 31.250 FPS (1536 SPF)
Bit depth                   : 16 bits
Compression mode            : Lossy
Stream size                 : 70.2 MiB (12%)
Title                       : Українська
Language                    : Ukrainian
Service kind                : Complete Main
Default                     : Yes
Forced                      : No

Audio #2
ID                          : 3
Format                      : E-AC-3
Format/Info                 : Enhanced AC-3
Commercial name             : Dolby Digital Plus
Codec ID                    : A_EAC3
Duration                    : 21 min 54 s
Bit rate mode               : Constant
Bit rate                    : 256 kb/s
Channel(s)                  : 6 channels
Channel layout              : L R C LFE Ls Rs
Sampling rate               : 48.0 kHz
Frame rate                  : 31.250 FPS (1536 SPF)
Compression mode            : Lossy
Stream size                 : 40.1 MiB (7%)
Service kind                : Complete Main
Default                     : No
Forced                      : No
Скріншоти



Озвучено студією сайту:
Ролі озвучили: Євген Малуха, Юлія Малахова, Семен Птаха, Олексій Сафін та Андрій Корзаченко.


Авторський реліз (завантажувати можна без реєстрації)
 Трекер:    Зареєстрований   

Завантажити / скачати мультфільм українською



відео для новачків



 Зареєстрований:   2020-05-15 21:05
 Розмір:   4.73 GB 
 Оцінка мультсеріалу:   9.3/10 (Голосів: 30)
 Перекладено та озвучено 6-8 серії. Фінал сезону!
   
bot 
робот


З нами з: 30.09.07
Востаннє: 26.05.05
Повідомлень: 24608

2020-03-29 23:17  
Тему перенесено з Мультсеріали в HD до форуму Анонси релізів


simpsonsua

bogdan8249 
Відео Гуртом - фільмокрай
Відео Гуртом - фільмокрай


З нами з: 09.08.08
Востаннє: 01.06.20
Повідомлень: 1230

2020-03-30 09:22  
IMDb вказана на мультсеріал "Амфібія".
simpsonsua 
VIP


З нами з: 13.03.18
Востаннє: 02.06.20
Повідомлень: 331

2020-03-30 09:40  
bogdan8249

Виправили.

Done56 
VIP


З нами з: 23.11.15
Востаннє: 02.06.20
Повідомлень: 315

2020-03-30 21:06  
Трейлер бімба! Дивитися, дивитися та ще раз дивитися - будемо)
Anaive 
Поважний учасник


З нами з: 07.06.11
Востаннє: 01.06.20
Повідомлень: 230

2020-03-31 14:24  
"срана мала стругачка"
плачу від сміху )))

simpsonsua 
VIP


З нами з: 13.03.18
Востаннє: 02.06.20
Повідомлень: 331

2020-05-08 23:07  
Друзі, ми переклали та озвучили 1 серію українською мовою!

Бажаємо всім приємного перегляду!

antik_2008 
Релізер і модератор відео


З нами з: 20.10.08
Востаннє: 01.06.20
Повідомлень: 3829

2020-05-08 23:10  
simpsonsua Дякую! Має бути крутий мультсеріал Happy
simpsonsua 
VIP


З нами з: 13.03.18
Востаннє: 02.06.20
Повідомлень: 331

2020-05-10 13:02  
Друзі, ми переклали та озвучили 2 серію українською мовою!

Бажаємо всім приємного перегляду!

leicheman 
Відео Гуртом - фільмокрай
Відео Гуртом - фільмокрай


З нами з: 03.07.14
Востаннє: 02.06.20
Повідомлень: 4940

2020-05-10 21:05  
Можна вас і акторів попросити, щоб при озвучці так сильно не кричали? у оригіналі вони не сильно підвищують голоси, А у озвученні аж занадто і від того не так комфортно (голова аж болить)
simpsonsua 
VIP


З нами з: 13.03.18
Востаннє: 02.06.20
Повідомлень: 331

2020-05-11 13:30  
Друзі, ми переклали та озвучили 3 серію українською мовою!

Бажаємо всім приємного перегляду!

simpsonsua 
VIP


З нами з: 13.03.18
Востаннє: 02.06.20
Повідомлень: 331

2020-05-11 18:55  
Друзі, ми переклали та озвучили 4 серію українською мовою!
Екватор сезону...


Бажаємо всім приємного перегляду!

nerodocente 
Частий відвідувач


З нами з: 02.01.11
Востаннє: 02.06.20
Повідомлень: 26

2020-05-14 15:06  
чудовий сітком, прекрасний переклад Wink (2)
simpsonsua 
VIP


З нами з: 13.03.18
Востаннє: 02.06.20
Повідомлень: 331

2020-05-14 19:28  
Друзі, ми переклали та озвучили 5 серію українською мовою!

Бажаємо всім приємного перегляду!

simpsonsua 
VIP


З нами з: 13.03.18
Востаннє: 02.06.20
Повідомлень: 331

2020-05-15 21:06  
Друзі, ми переклали та озвучили 6-8 серії українською мовою.
Фінал сезону!


Бажаємо всім приємного перегляду!

Dark Invader 
Модератор відео


З нами з: 06.01.11
Востаннє: 02.06.20
Повідомлень: 2878

2020-05-16 00:55  
Досить крутезний мульт вийшов. (Особливо 7-а серія). Нічим не гірше за "Ріка та Морті".

Тільки жаль, що так мало серій. Wink (2)

P.S. Дякуємо simpsonsua за таке круте та оперативне озвучення.

leicheman 
Відео Гуртом - фільмокрай
Відео Гуртом - фільмокрай


З нами з: 03.07.14
Востаннє: 02.06.20
Повідомлень: 4940

2020-05-16 16:54  
мені більше сподобалося дивитися на людей акваріуму аніж про іншопланетян цих
V_Plum 
Новенький


З нами з: 16.09.10
Востаннє: 31.05.20
Повідомлень: 5

2020-05-17 13:32  
Присутність російських матюків в перекладі, як на мене, неприйнятна. Дуже шкода, що доводиться їх там чути Sad (1)
Joer 
Новенький


З нами з: 08.11.18
Востаннє: 31.05.20
Повідомлень: 1

2020-05-17 17:35  
Ну якби матюки походять не з москви, а з Русі, а Русь - Україна.
V_Plum 
Новенький


З нами з: 16.09.10
Востаннє: 31.05.20
Повідомлень: 5

2020-05-18 01:07  
Якби байдуже, звідки вони якби походять, але матюки на кшталт "б**дь" не притаманні українській мові та українській культурі, оскільки українська лайка суттєво відрізнялася від того, що було насаджене радянською "культурою".
dimcheg.art 
Новенький


З нами з: 03.05.18
Востаннє: 31.05.20
Повідомлень: 3

2020-05-19 22:30  
Дякую за оригінальну озвучку!
simpsonsua, а чому ви на сайті оригінальну озвучку не викладаєте (другим аудіо, як тут), яб із задоволенням підписку брав (тим паче, що це у рази дешевше ніж нетфлікс).

simpsonsua 
VIP


З нами з: 13.03.18
Востаннє: 02.06.20
Повідомлень: 331

2020-05-19 22:37  
dimcheg.art написано:
а чому ви на сайті оригінальну озвучку не викладаєте

Обдумаємо такий варіант. Дякуємо!)

Estranded 
VIP


З нами з: 09.02.14
Востаннє: 02.06.20
Повідомлень: 1472

2020-06-02 00:33  
Непоганий мульт, звісно до Ріка і Морті йому далеко (якщо порівнювати), але дивитися варто. Є смішні моменти, свій стиль та окремі цікаві персонажі.
7/10 — чекаю на другий сезон!

Ваш часовий пояс: GMT + 2 Години

Нова тема   Відповісти